  0
SECTION
  2
HEADER
  9
$ACADVER
  1
AC1014
  9
$ACADMAINTVER
 70
           0
  9
$DWGCODEPAGE
  3
DOS932
  9
$INSBASE
 10
0.0
 20
0.0
 30
0.0
  9
$EXTMIN
 10
1.000000000000E+20
 20
1.000000000000E+20
 30
1.000000000000E+20
  9
$EXTMAX
 10
-1.000000000000E+20
 20
-1.000000000000E+20
 30
-1.000000000000E+20
  9
$LIMMIN
 10
0.0
 20
0.0
  9
$LIMMAX
 10
0.0
 20
0.0
  9
$ORTHOMODE
 70
           0
  9
$REGENMODE
 70
           1
  9
$FILLMODE
 70
           1
  9
$QTEXTMODE
 70
           0
  9
$MIRRTEXT
 70
           1
  9
$DRAGMODE
 70
           2
  9
$LTSCALE
 40
1.0
  9
$OSMODE
 70
           0
  9
$ATTMODE
 70
           1
  9
$TEXTSIZE
 40
0.2
  9
$TRACEWID
 40
0.05
  9
$TEXTSTYLE
  7
STANDARD
  9
$CLAYER
  8
0
  9
$CELTYPE
  6
CONTINUOUS
  9
$CECOLOR
 62
         256
  9
$CELTSCALE
 40
1.0
  9
$DELOBJ
 70
           1
  9
$DISPSILH
 70
           0
  9
$DIMSCALE
 40
1.0
  9
$DIMASZ
 40
0.18
  9
$DIMEXO
 40
0.0625
  9
$DIMDLI
 40
0.38
  9
$DIMRND
 40
0.0
  9
$DIMDLE
 40
0.0
  9
$DIMEXE
 40
0.18
  9
$DIMTP
 40
0.0
  9
$DIMTM
 40
0.0
  9
$DIMTXT
 40
0.18
  9
$DIMCEN
 40
0.09
  9
$DIMTSZ
 40
0.0
  9
$DIMTOL
 70
           0
  9
$DIMLIM
 70
           0
  9
$DIMTIH
 70
           1
  9
$DIMTOH
 70
           1
  9
$DIMSE1
 70
           0
  9
$DIMSE2
 70
           0
  9
$DIMTAD
 70
           0
  9
$DIMZIN
 70
           0
  9
$DIMBLK
  1

  9
$DIMASO
 70
           1
  9
$DIMSHO
 70
           1
  9
$DIMPOST
  1

  9
$DIMAPOST
  1

  9
$DIMALT
 70
           0
  9
$DIMALTD
 70
           2
  9
$DIMALTF
 40
25.4
  9
$DIMLFAC
 40
1.0
  9
$DIMTOFL
 70
           0
  9
$DIMTVP
 40
0.0
  9
$DIMTIX
 70
           0
  9
$DIMSOXD
 70
           0
  9
$DIMSAH
 70
           0
  9
$DIMBLK1
  1

  9
$DIMBLK2
  1

  9
$DIMSTYLE
  2
STANDARD
  9
$DIMCLRD
 70
           0
  9
$DIMCLRE
 70
           0
  9
$DIMCLRT
 70
           0
  9
$DIMTFAC
 40
1.0
  9
$DIMGAP
 40
0.09
  9
$DIMJUST
 70
           0
  9
$DIMSD1
 70
           0
  9
$DIMSD2
 70
           0
  9
$DIMTOLJ
 70
           1
  9
$DIMTZIN
 70
           0
  9
$DIMALTZ
 70
           0
  9
$DIMALTTZ
 70
           0
  9
$DIMFIT
 70
           3
  9
$DIMUPT
 70
           0
  9
$DIMUNIT
 70
           2
  9
$DIMDEC
 70
           4
  9
$DIMTDEC
 70
           4
  9
$DIMALTU
 70
           2
  9
$DIMALTTD
 70
           2
  9
$DIMTXSTY
  7
STANDARD
  9
$DIMAUNIT
 70
           0
  9
$LUNITS
 70
           2
  9
$LUPREC
 70
           4
  9
$SKETCHINC
 40
0.1
  9
$FILLETRAD
 40
0.0
  9
$AUNITS
 70
           0
  9
$AUPREC
 70
           0
  9
$MENU
  1
acad
  9
$ELEVATION
 40
0.0
  9
$PELEVATION
 40
0.0
  9
$THICKNESS
 40
0.0
  9
$LIMCHECK
 70
           0
  9
$BLIPMODE
 70
           1
  9
$CHAMFERA
 40
0.0
  9
$CHAMFERB
 40
0.0
  9
$CHAMFERC
 40
0.0
  9
$CHAMFERD
 40
0.0
  9
$SKPOLY
 70
           0
  9
$TDCREATE
 40
0.000000000
  9
$TDUPDATE
 40
0.000000000
  9
$TDINDWG
 40
0.0000000000
  9
$TDUSRTIMER
 40
0.0000000000
  9
$USRTIMER
 70
           1
  9
$ANGBASE
 50
0.0
  9
$ANGDIR
 70
           0
  9
$PDMODE
 70
           0
  9
$PDSIZE
 40
0.0
  9
$PLINEWID
 40
0.0
  9
$COORDS
 70
           0
  9
$SPLFRAME
 70
           0
  9
$SPLINETYPE
 70
           6
  9
$SPLINESEGS
 70
           8
  9
$ATTDIA
 70
           0
  9
$ATTREQ
 70
           1
  9
$HANDLING
 70
           1
  9
$HANDSEED
  5
78B
  9
$SURFTAB1
 70
           6
  9
$SURFTAB2
 70
           6
  9
$SURFTYPE
 70
           6
  9
$SURFU
 70
           6
  9
$SURFV
 70
           6
  9
$UCSNAME
  2

  9
$UCSORG
 10
0.0
 20
0.0
 30
0.0
  9
$UCSXDIR
 10
1.0
 20
0.0
 30
0.0
  9
$UCSYDIR
 10
0.0
 20
1.0
 30
0.0
  9
$PUCSNAME
  2

  9
$PUCSORG
 10
0.0
 20
0.0
 30
0.0
  9
$PUCSXDIR
 10
1.0
 20
0.0
 30
0.0
  9
$PUCSYDIR
 10
0.0
 20
1.0
 30
0.0
  9
$USERI1
 70
           0
  9
$USERI2
 70
           0
  9
$USERI3
 70
           0
  9
$USERI4
 70
           0
  9
$USERI5
 70
           0
  9
$USERR1
 40
0.0
  9
$USERR2
 40
0.0
  9
$USERR3
 40
0.0
  9
$USERR4
 40
0.0
  9
$USERR5
 40
0.0
  9
$WORLDVIEW
 70
           1
  9
$SHADEDGE
 70
           3
  9
$SHADEDIF
 70
          70
  9
$TILEMODE
 70
           1
  9
$MAXACTVP
 70
          16
  9
$PINSBASE
 10
0.0
 20
0.0
 30
0.0
  9
$PLIMCHECK
 70
           0
  9
$PEXTMIN
 10
1.000000000000E+20
 20
1.000000000000E+20
 30
1.000000000000E+20
  9
$PEXTMAX
 10
-1.000000000000E+20
 20
-1.000000000000E+20
 30
-1.000000000000E+20
  9
$PLIMMIN
 10
0.0
 20
0.0
  9
$PLIMMAX
 10
12.0
 20
9.0
  9
$UNITMODE
 70
           0
  9
$VISRETAIN
 70
           0
  9
$PLINEGEN
 70
           1
  9
$PSLTSCALE
 70
           0
  9
$TREEDEPTH
 70
        3020
  9
$PICKSTYLE
 70
           1
  9
$CMLSTYLE
  2
STANDARD
  9
$CMLJUST
 70
           0
  9
$CMLSCALE
 40
1.0
  9
$PROXYGRAPHICS
 70
           0
  9
$MEASUREMENT
 70
           1
  0
ENDSEC
  0
SECTION
  2
CLASSES
  0
CLASS
  1
LWPOLYLINE
  2
AcDbPolyline
  3
"AutoCAD"
 90
        0
280
           0
281
           1
  0
CLASS
  1
IMAGE
  2
AcDbRasterImage
  3
ISM
 90
      127
280
           0
281
           1
  0
CLASS
  1
OLE2FRAME
  2
AcDbOle2Frame
  3
""
 90
        0
280
           0
281
           1
  0
CLASS
  1
HATCH
  2
AcDbHatch
  3
"ACAD_SEDONA"
 90
        0
280
           0
281
           1
  0
CLASS
  1
DICTIONARYVAR
  2
AcDbDictionaryVar
  3
"AutoCAD"
 90
        0
280
           0
281
           0
  0
CLASS
  1
RASTERVARIABLES
  2
AcDbRasterVariables
  3
ISM
 90
        0
280
           0
281
           0
  0
CLASS
  1
IMAGEDEF
  2
AcDbRasterImageDef
  3
ISM
 90
        0
280
           0
281
           0
  0
CLASS
  1
IMAGEDEF_REACTOR
  2
AcDbRasterImageDefReactor
  3
ISM
 90
        1
280
           0
281
           0
  0
CLASS
  1
IDBUFFER
  2
AcDbIdBuffer
  3
"Acad"
 90
        0
280
           0
281
           0
  0
CLASS
  1
SPATIAL_FILTER
  2
AcDbSpatialFilter
  3
"Acad"
 90
        0
280
           0
281
           0
  0
CLASS
  1
XRECORD
  2
AcDbXrecord
  3
"<Built In>"
 90
        0
280
           0
281
           0
  0
CLASS
  1
SORTENTSTABLE
  2
AcDbSortentsTable
  3
"AutoCAD"
 90
        0
280
           0
281
           0
  0
CLASS
  1
LAYER_INDEX
  2
AcDbLayerIndex
  3
"Acad"
 90
        0
280
           0
281
           0
  0
CLASS
  1
SPATIAL_INDEX
  2
AcDbSpatialIndex
  3
"Acad"
 90
        0
280
           0
281
           0
  0
CLASS
  1
OBJECT_PTR
  2
CAseDLPNTableRecord
  3
"ASE-LPNTableRecord"
 90
        1
280
           0
281
           0
  0
CLASS
  1
LAYOUT
  2
AcDbLayout
  3
"AutoCAD 2000"
 90
        1
280
           0
281
           0
  0
CLASS
  1
PLOTSETTINGS
  2
AcDbPlotSettings
  3
"AutoCAD 2000"
 90
        1
280
           0
281
           0
  0
CLASS
  1
ACDBDICTIONARYWDFLT
  2
AcDbDictionaryWithDefault
  3
"AutoCAD 2000"
 90
        1
280
           0
281
           0
  0
CLASS
  1
ACDBPLACEHOLDER
  2
AcDbPlaceHolder
  3
"AutoCAD 2000"
 90
        1
280
           0
281
           0
  0
CLASS
  1
VBA_PROJECT
  2
AcDbVbaProject
  3
"acadvba"
 90
        1
280
           0
281
           0
  0
CLASS
  1
WIPEOUT
  2
AcDbWipeout
  3
WipeOut|AutoCAD Express Tool|expresstools@autodesk.com
 90
      127
280
           0
281
           1
  0
CLASS
  1
WIPEOUTVARIABLES
  2
AcDbWipeoutVariables
  3
WipeOut|AutoCAD Express Tool|expresstools@autodesk.com
 90
        0
280
           0
281
           0
  0
CLASS
  1
RTEXT
  2
RText
  3
RText|AutoCAD Express Tool|expresstools@autodesk.com
 90
        0
280
           0
281
           1
  0
CLASS
  1
ARCALIGNEDTEXT
  2
AcDbArcAlignedText
  3
ATEXT|AutoCAD Express Tool|expresstools@autodesk.com
 90
        0
280
           0
281
           1
  0
ENDSEC
  0
SECTION
  2
TABLES
  0
TABLE
  2
VPORT
  5
7
100
AcDbSymbolTable
 70
           1
  0
VPORT
  5
15
100
AcDbSymbolTableRecord
100
AcDbViewportTableRecord
  2
*ACTIVE
 70
           0
 10
0.0
 20
0.0
 11
1.0
 21
1.0
 12
6.591288
 22
4.579184
 13
0.0
 23
0.0
 14
1.0
 24
1.0
 15
0.0
 25
0.0
 16
0.0
 26
0.0
 36
1.0
 17
0.0
 27
0.0
 37
0.0
 40
9.158369
 41
0.688564
 42
50.0
 43
0.0
 44
0.0
 50
0.0
 51
0.0
 71
           0
 72
         100
 73
           1
 74
           1
 75
           0
 76
           0
 77
           0
 78
           0
  0
ENDTAB
  0
TABLE
  2
LTYPE
  5
4
100
AcDbSymbolTable
 70
          10
  0
LTYPE
  5
11
100
AcDbSymbolTableRecord
100
AcDbLinetypeTableRecord
  2
BYBLOCK
 70
          64
  3

 72
          65
 73
           0
 40
0.0
  0
LTYPE
  5
12
100
AcDbSymbolTableRecord
100
AcDbLinetypeTableRecord
  2
BYLAYER
 70
          64
  3

 72
          65
 73
           0
 40
0.0
  0
LTYPE
  5
13
100
AcDbSymbolTableRecord
100
AcDbLinetypeTableRecord
  2
CONTINUOUS
 70
          64
  3
Solid line
 72
          65
 73
           0
 40
0.0
  0
LTYPE
  5
1D
100
AcDbSymbolTableRecord
100
AcDbLinetypeTableRecord
  2
DASHED
 70
          64
  3
Dashed
 72
          65
 73
           2
 40
15.0
 49
12.0
 74
           0
 49
-3.0
 74
           0
  0
LTYPE
  5
1E
100
AcDbSymbolTableRecord
100
AcDbLinetypeTableRecord
  2
DOTTED
 70
          64
  3
Dotted
 72
          65
 73
           2
 40
3.5
 49
0.5
 74
           0
 49
-3.0
 74
           0
  0
LTYPE
  5
1F
100
AcDbSymbolTableRecord
100
AcDbLinetypeTableRecord
  2
DOT_CENTER
 70
          64
  3
Dot_Center
 72
          65
 73
           4
 40
2.0
 49
1.25
 74
           0
 49
-0.25
 74
           0
 49
0.25
 74
           0
 49
-0.25
 74
           0
  0
LTYPE
  5
20
100
AcDbSymbolTableRecord
100
AcDbLinetypeTableRecord
  2
LONG_DASHED
 70
          64
  3
Long_Dashed
 72
          65
 73
           2
 40
2.0
 49
1.5
 74
           0
 49
-0.5
 74
           0
  0
LTYPE
  5
21
100
AcDbSymbolTableRecord
100
AcDbLinetypeTableRecord
  2
DASH_CENTER
 70
          64
  3
Dash_Center
 72
          65
 73
           4
 40
36.0
 49
24.0
 74
           0
 49
-3.0
 74
           0
 49
6.0
 74
           0
 49
-3.0
 74
           0
  0
LTYPE
  5
22
100
AcDbSymbolTableRecord
100
AcDbLinetypeTableRecord
  2
PHANTOM
 70
          64
  3
Phantom
 72
          65
 73
           6
 40
2.5
 49
1.25
 74
           0
 49
-0.25
 74
           0
 49
0.25
 74
           0
 49
-0.25
 74
           0
 49
0.25
 74
           0
 49
-0.25
 74
           0
  0
LTYPE
  5
23
100
AcDbSymbolTableRecord
100
AcDbLinetypeTableRecord
  2
CENTER_DASH_DASH
 70
          64
  3
Center_Dash_Dash
 72
          65
 73
           6
 40
22.0
 49
12.0
 74
           0
 49
-3.0
 74
           0
 49
0.5
 74
           0
 49
-3.0
 74
           0
 49
0.5
 74
           0
 49
-3.0
 74
           0
  0
ENDTAB
  0
TABLE
  2
LAYER
  5
2
100
AcDbSymbolTable
 70
           2
  0
LAYER
  5
14
100
AcDbSymbolTableRecord
100
AcDbLayerTableRecord
  2
0
 70
           0
 62
           7
  6
CONTINUOUS
  0
LAYER
  5
24
100
AcDbSymbolTableRecord
100
AcDbLayerTableRecord
  2
1
 70
           0
 62
           7
  6
CONTINUOUS
  0
ENDTAB
  0
TABLE
  2
STYLE
  5
3
100
AcDbSymbolTable
 70
           8
  0
STYLE
  5
17
100
AcDbSymbolTableRecord
100
AcDbTextStyleTableRecord
  2
STANDARD
 70
           0
 40
0.0
 41
1.0
 50
0.0
 71
           0
 42
0.0
  3
txt
  4

  0
STYLE
  5
298
100
AcDbSymbolTableRecord
100
AcDbTextStyleTableRecord
  2
CONVERTER_1
 70
           0
 40
0.0
 41
1.335
 50
0.0
 71
           0
 42
0.0
  3
MS Mincho.ttf
  4

1001
ACAD
1000
MS Mincho
1071
    32785
  0
STYLE
  5
29F
100
AcDbSymbolTableRecord
100
AcDbTextStyleTableRecord
  2
CONVERTER_2
 70
           0
 40
0.0
 41
1.35
 50
0.0
 71
           0
 42
0.0
  3
txt.shx
  4

  0
STYLE
  5
5F9
100
AcDbSymbolTableRecord
100
AcDbTextStyleTableRecord
  2
CONVERTER_3
 70
           0
 40
0.0
 41
0.6675
 50
8.0
 71
           0
 42
0.0
  3
MS Mincho.ttf
  4

1001
ACAD
1000
MS Mincho
1071
    32785
  0
STYLE
  5
606
100
AcDbSymbolTableRecord
100
AcDbTextStyleTableRecord
  2
CONVERTER_4
 70
           0
 40
0.0
 41
0.9
 50
0.0
 71
           0
 42
0.0
  3
txt.shx
  4

  0
STYLE
  5
609
100
AcDbSymbolTableRecord
100
AcDbTextStyleTableRecord
  2
CONVERTER_5
 70
           0
 40
0.0
 41
0.89
 50
0.0
 71
           0
 42
0.0
  3
MS Mincho.ttf
  4

1001
ACAD
1000
MS Mincho
1071
    32785
  0
STYLE
  5
61A
100
AcDbSymbolTableRecord
100
AcDbTextStyleTableRecord
  2
CONVERTER_6
 70
           0
 40
0.0
 41
1.2
 50
8.0
 71
           0
 42
0.0
  3
txt.shx
  4

  0
STYLE
  5
667
100
AcDbSymbolTableRecord
100
AcDbTextStyleTableRecord
  2
CONVERTER_7
 70
           0
 40
0.0
 41
1.186666666667
 50
8.0
 71
           0
 42
0.0
  3
MS Mincho.ttf
  4

1001
ACAD
1000
MS Mincho
1071
    32785
  0
ENDTAB
  0
TABLE
  2
VIEW
  5
5
100
AcDbSymbolTable
 70
           0
  0
ENDTAB
  0
TABLE
  2
UCS
  5
6
100
AcDbSymbolTable
 70
           0
  0
ENDTAB
  0
TABLE
  2
APPID
  5
8
100
AcDbSymbolTable
 70
           1
  0
APPID
  5
16
100
AcDbSymbolTableRecord
100
AcDbRegAppTableRecord
  2
ACAD
 70
           0
  0
ENDTAB
  0
TABLE
  2
DIMSTYLE
  5
9
100
AcDbSymbolTable
 70
          23
  0
DIMSTYLE
105
18
100
AcDbSymbolTableRecord
100
AcDbDimStyleTableRecord
  2
STANDARD
 70
           0
  3

  4

  5

  6

  7

 40
1.0
 41
0.18
 42
0.0625
 43
0.38
 44
0.18
 45
0.0
 46
0.0
 47
0.0
 48
0.0
 71
           0
 72
           0
 73
           1
 74
           1
 75
           0
 76
           0
 77
           0
 78
           0
140
0.18
141
0.09
142
0.0
143
25.4
144
1.0
145
0.0
146
1.0
147
0.09
170
           0
171
           2
172
           0
173
           0
174
           0
175
           0
176
           0
177
           0
178
           0
270
           2
271
           4
272
           4
273
           2
274
           2
275
           0
280
           0
281
           0
282
           0
283
           1
284
           0
285
           0
286
           0
287
           0
288
           0
340
17
  0
DIMSTYLE
105
61F
100
AcDbSymbolTableRecord
100
AcDbDimStyleTableRecord
  2
ME10_DIM_0
 70
           0
  3

  4

  5

  6
_OPEN30
  7
_OPEN30
 40
1.0
 41
3.5
 42
0.7
 43
0.38
 44
2.0
 45
0.0
 46
0.0
 47
0.0
 48
0.0
 71
           0
 72
           0
 73
           1
 74
           1
 75
           0
 76
           0
 77
           1
 78
           8
140
3.5
141
0.09
142
0.0
143
25.4
144
1.0
145
0.0
146
1.0
147
0.625
170
           0
171
           2
172
           0
173
           1
174
           0
175
           0
176
           2
177
           2
178
           3
270
           2
271
           2
272
           4
273
           2
274
           2
275
           0
280
           0
281
           0
282
           0
283
           1
284
           0
285
           0
286
           0
287
           3
288
           0
340
17
  0
DIMSTYLE
105
62E
100
AcDbSymbolTableRecord
100
AcDbDimStyleTableRecord
  2
ME10_DIM_1
 70
           0
  3

  4

  5

  6
_OPEN30
  7
_OPEN30
 40
1.0
 41
3.5
 42
0.7
 43
0.38
 44
2.0
 45
0.0
 46
0.0
 47
0.0
 48
0.0
 71
           0
 72
           0
 73
           1
 74
           1
 75
           0
 76
           0
 77
           1
 78
           8
140
3.5
141
0.09
142
0.0
143
25.4
144
1.0
145
0.0
146
1.0
147
0.625
170
           0
171
           2
172
           0
173
           1
174
           0
175
           0
176
           2
177
           2
178
           3
270
           2
271
           2
272
           4
273
           2
274
           2
275
           0
280
           0
281
           0
282
           0
283
           1
284
           0
285
           0
286
           0
287
           3
288
           0
340
17
  0
DIMSTYLE
105
63D
100
AcDbSymbolTableRecord
100
AcDbDimStyleTableRecord
  2
ME10_DIM_2
 70
           0
  3

  4

  5

  6
_OPEN30
  7
_OPEN30
 40
1.0
 41
3.5
 42
0.7
 43
0.38
 44
2.0
 45
0.0
 46
0.0
 47
0.0
 48
0.0
 71
           0
 72
           0
 73
           1
 74
           1
 75
           0
 76
           0
 77
           1
 78
           1
140
3.5
141
0.09
142
0.0
143
25.4
144
1.0
145
0.0
146
1.0
147
0.625
170
           0
171
           2
172
           0
173
           1
174
           0
175
           0
176
           2
177
           2
178
           3
270
           2
271
           1
272
           4
273
           2
274
           2
275
           0
280
           0
281
           0
282
           0
283
           1
284
           0
285
           0
286
           0
287
           3
288
           0
340
17
  0
DIMSTYLE
105
64C
100
AcDbSymbolTableRecord
100
AcDbDimStyleTableRecord
  2
ME10_DIM_3
 70
           0
  3

  4

  5

  6
_OPEN30
  7
_OPEN30
 40
1.0
 41
3.5
 42
0.7
 43
0.38
 44
2.0
 45
0.0
 46
0.0
 47
0.0
 48
0.0
 71
           0
 72
           0
 73
           1
 74
           1
 75
           0
 76
           0
 77
           1
 78
           8
140
3.5
141
0.09
142
0.0
143
25.4
144
1.0
145
0.0
146
1.0
147
0.625
170
           0
171
           2
172
           0
173
           1
174
           0
175
           0
176
           2
177
           2
178
           3
270
           2
271
           2
272
           4
273
           2
274
           2
275
           0
280
           0
281
           0
282
           0
283
           1
284
           0
285
           0
286
           0
287
           3
288
           0
340
17
  0
DIMSTYLE
105
65B
100
AcDbSymbolTableRecord
100
AcDbDimStyleTableRecord
  2
ME10_DIM_4
 70
           0
  3

  4

  5

  6
_OPEN30
  7
_OPEN30
 40
1.0
 41
3.5
 42
0.7
 43
0.38
 44
2.0
 45
0.0
 46
0.0
 47
0.0
 48
0.0
 71
           0
 72
           0
 73
           1
 74
           1
 75
           0
 76
           0
 77
           1
 78
           1
140
3.5
141
0.09
142
0.0
143
25.4
144
1.0
145
0.0
146
1.0
147
0.625
170
           0
171
           2
172
           0
173
           1
174
           0
175
           0
176
           2
177
           2
178
           3
270
           2
271
           1
272
           4
273
           2
274
           2
275
           0
280
           0
281
           0
282
           0
283
           1
284
           0
285
           0
286
           0
287
           3
288
           0
340
17
  0
DIMSTYLE
105
66C
100
AcDbSymbolTableRecord
100
AcDbDimStyleTableRecord
  2
ME10_DIM_5
 70
           0
  3
以上(5mm以下の場合はご相談下さい)
  4

  5

  6
_OPEN30
  7
_OPEN30
 40
1.0
 41
3.5
 42
0.7
 43
0.38
 44
2.0
 45
0.0
 46
0.0
 47
0.0
 48
0.0
 71
           0
 72
           0
 73
           1
 74
           1
 75
           0
 76
           0
 77
           1
 78
           8
140
3.5
141
0.09
142
0.0
143
25.4
144
1.0
145
0.0
146
1.0
147
0.625
170
           0
171
           2
172
           0
173
           1
174
           0
175
           0
176
           2
177
           2
178
           3
270
           2
271
           2
272
           4
273
           2
274
           2
275
           0
280
           0
281
           0
282
           0
283
           1
284
           0
285
           0
286
           0
287
           3
288
           0
340
17
  0
DIMSTYLE
105
67D
100
AcDbSymbolTableRecord
100
AcDbDimStyleTableRecord
  2
ME10_DIM_6
 70
           0
  3

  4

  5

  6
_OPEN30
  7
_OPEN30
 40
1.0
 41
3.5
 42
0.7
 43
0.38
 44
2.0
 45
0.0
 46
0.0
 47
0.0
 48
0.0
 71
           0
 72
           0
 73
           0
 74
           0
 75
           0
 76
           0
 77
           1
 78
           8
140
3.5
141
0.09
142
0.0
143
25.4
144
1.0
145
0.0
146
1.0
147
0.625
170
           0
171
           2
172
           0
173
           1
174
           0
175
           0
176
           2
177
           2
178
           3
270
           2
271
           2
272
           4
273
           2
274
           2
275
           0
280
           0
281
           0
282
           0
283
           1
284
           0
285
           0
286
           0
287
           3
288
           0
340
17
  0
DIMSTYLE
105
68C
100
AcDbSymbolTableRecord
100
AcDbDimStyleTableRecord
  2
ME10_DIM_7
 70
           0
  3
(本体幅)
  4

  5

  6
_OPEN30
  7
_OPEN30
 40
1.0
 41
3.5
 42
0.7
 43
0.38
 44
2.0
 45
0.0
 46
0.0
 47
0.0
 48
0.0
 71
           0
 72
           0
 73
           0
 74
           0
 75
           0
 76
           0
 77
           1
 78
           8
140
3.5
141
0.09
142
0.0
143
25.4
144
1.0
145
0.0
146
1.0
147
0.625
170
           0
171
           2
172
           0
173
           1
174
           0
175
           0
176
           2
177
           2
178
           3
270
           2
271
           2
272
           4
273
           2
274
           2
275
           0
280
           0
281
           0
282
           0
283
           1
284
           0
285
           0
286
           0
287
           3
288
           0
340
17
  0
DIMSTYLE
105
69D
100
AcDbSymbolTableRecord
100
AcDbDimStyleTableRecord
  2
ME10_DIM_8
 70
           0
  3

  4

  5

  6
_OPEN30
  7
_OPEN30
 40
1.0
 41
3.5
 42
0.7
 43
0.38
 44
2.0
 45
0.0
 46
0.0
 47
0.5
 48
0.5
 71
           1
 72
           0
 73
           0
 74
           0
 75
           0
 76
           0
 77
           1
 78
           8
140
3.5
141
0.09
142
0.0
143
25.4
144
1.0
145
0.0
146
0.6
147
0.625
170
           0
171
           2
172
           0
173
           1
174
           0
175
           0
176
           2
177
           2
178
           3
270
           2
271
           2
272
           1
273
           2
274
           2
275
           0
280
           0
281
           0
282
           0
283
           1
284
           0
285
           0
286
           0
287
           3
288
           0
340
17
  0
DIMSTYLE
105
6AC
100
AcDbSymbolTableRecord
100
AcDbDimStyleTableRecord
  2
ME10_DIM_9
 70
           0
  3
(<>)
  4

  5

  6
_OPEN30
  7
_OPEN30
 40
1.0
 41
3.5
 42
0.7
 43
0.38
 44
2.0
 45
0.0
 46
0.0
 47
0.0
 48
0.0
 71
           0
 72
           0
 73
           0
 74
           0
 75
           0
 76
           0
 77
           1
 78
           8
140
3.5
141
0.09
142
0.0
143
25.4
144
1.0
145
0.0
146
1.0
147
0.625
170
           0
171
           2
172
           0
173
           1
174
           0
175
           0
176
           2
177
           2
178
           3
270
           2
271
           2
272
           4
273
           2
274
           2
275
           0
280
           0
281
           0
282
           0
283
           1
284
           0
285
           0
286
           0
287
           3
288
           0
340
17
  0
DIMSTYLE
105
6BD
100
AcDbSymbolTableRecord
100
AcDbDimStyleTableRecord
  2
ME10_DIM_10
 70
           0
  3

  4

  5

  6
_OPEN30
  7
_OPEN30
 40
1.0
 41
3.5
 42
0.7
 43
0.38
 44
2.0
 45
0.0
 46
0.0
 47
0.0
 48
0.0
 71
           0
 72
           0
 73
           0
 74
           0
 75
           0
 76
           0
 77
           1
 78
           8
140
3.5
141
0.09
142
0.0
143
25.4
144
1.0
145
0.0
146
1.0
147
0.625
170
           0
171
           2
172
           0
173
           1
174
           0
175
           0
176
           2
177
           2
178
           3
270
           2
271
           2
272
           4
273
           2
274
           2
275
           0
280
           0
281
           0
282
           0
283
           1
284
           0
285
           0
286
           0
287
           3
288
           0
340
17
  0
DIMSTYLE
105
6CC
100
AcDbSymbolTableRecord
100
AcDbDimStyleTableRecord
  2
ME10_DIM_11
 70
           0
  3

  4

  5

  6
_OPEN30
  7
_OPEN30
 40
1.0
 41
3.5
 42
0.7
 43
0.38
 44
2.0
 45
0.0
 46
0.0
 47
0.0
 48
0.0
 71
           0
 72
           0
 73
           0
 74
           0
 75
           0
 76
           0
 77
           1
 78
           8
140
3.5
141
0.09
142
0.0
143
25.4
144
1.0
145
0.0
146
1.0
147
0.625
170
           0
171
           2
172
           0
173
           1
174
           0
175
           0
176
           2
177
           2
178
           3
270
           2
271
           2
272
           4
273
           2
274
           2
275
           0
280
           0
281
           0
282
           0
283
           1
284
           0
285
           0
286
           0
287
           3
288
           0
340
17
  0
DIMSTYLE
105
6DB
100
AcDbSymbolTableRecord
100
AcDbDimStyleTableRecord
  2
ME10_DIM_12
 70
           0
  3

  4

  5

  6
_OPEN30
  7
_OPEN30
 40
1.0
 41
3.5
 42
0.7
 43
0.38
 44
2.0
 45
0.0
 46
0.0
 47
0.0
 48
0.0
 71
           0
 72
           0
 73
           0
 74
           0
 75
           0
 76
           0
 77
           1
 78
           8
140
3.5
141
0.09
142
0.0
143
25.4
144
1.0
145
0.0
146
1.0
147
0.625
170
           0
171
           2
172
           0
173
           1
174
           0
175
           0
176
           2
177
           2
178
           3
270
           2
271
           2
272
           4
273
           2
274
           2
275
           0
280
           0
281
           0
282
           0
283
           1
284
           0
285
           0
286
           0
287
           3
288
           0
340
17
  0
DIMSTYLE
105
6EC
100
AcDbSymbolTableRecord
100
AcDbDimStyleTableRecord
  2
ME10_DIM_13
 70
           0
  3
(設定寸法)
  4

  5

  6
_OPEN30
  7
_OPEN30
 40
1.0
 41
3.5
 42
0.7
 43
0.38
 44
2.0
 45
0.0
 46
0.0
 47
0.0
 48
0.0
 71
           0
 72
           0
 73
           0
 74
           0
 75
           0
 76
           0
 77
           1
 78
           8
140
3.5
141
0.09
142
0.0
143
25.4
144
1.0
145
0.0
146
1.0
147
0.625
170
           0
171
           2
172
           0
173
           1
174
           0
175
           0
176
           2
177
           2
178
           3
270
           2
271
           2
272
           4
273
           2
274
           2
275
           0
280
           0
281
           0
282
           0
283
           1
284
           0
285
           0
286
           0
287
           3
288
           0
340
17
  0
DIMSTYLE
105
6FB
100
AcDbSymbolTableRecord
100
AcDbDimStyleTableRecord
  2
ME10_DIM_14
 70
           0
  3

  4

  5

  6
_OPEN30
  7
_OPEN30
 40
1.0
 41
3.5
 42
0.7
 43
0.38
 44
2.0
 45
0.0
 46
0.0
 47
0.0
 48
0.0
 71
           0
 72
           0
 73
           0
 74
           0
 75
           0
 76
           0
 77
           1
 78
           8
140
3.5
141
0.09
142
0.0
143
25.4
144
1.0
145
0.0
146
1.0
147
0.625
170
           0
171
           2
172
           0
173
           1
174
           0
175
           0
176
           2
177
           2
178
           3
270
           2
271
           2
272
           4
273
           2
274
           2
275
           0
280
           0
281
           0
282
           0
283
           1
284
           0
285
           0
286
           0
287
           3
288
           0
340
17
  0
DIMSTYLE
105
70A
100
AcDbSymbolTableRecord
100
AcDbDimStyleTableRecord
  2
ME10_DIM_15
 70
           0
  3

  4

  5

  6
_OPEN30
  7
_OPEN30
 40
1.0
 41
3.5
 42
0.7
 43
0.38
 44
2.0
 45
0.0
 46
0.0
 47
0.0
 48
0.0
 71
           0
 72
           0
 73
           0
 74
           0
 75
           0
 76
           0
 77
           1
 78
           8
140
3.5
141
0.09
142
0.0
143
25.4
144
1.0
145
0.0
146
1.0
147
0.625
170
           0
171
           2
172
           0
173
           1
174
           0
175
           0
176
           2
177
           2
178
           3
270
           2
271
           2
272
           4
273
           2
274
           2
275
           0
280
           0
281
           0
282
           0
283
           1
284
           0
285
           0
286
           0
287
           3
288
           0
340
17
  0
DIMSTYLE
105
71B
100
AcDbSymbolTableRecord
100
AcDbDimStyleTableRecord
  2
ME10_DIM_16
 70
           0
  3

  4

  5

  6
_OPEN30
  7
_OPEN30
 40
1.0
 41
3.5
 42
0.7
 43
0.38
 44
2.0
 45
0.0
 46
0.0
 47
0.0
 48
0.0
 71
           0
 72
           0
 73
           0
 74
           0
 75
           0
 76
           0
 77
           1
 78
           8
140
3.5
141
0.09
142
0.0
143
25.4
144
1.0
145
0.0
146
1.0
147
0.625
170
           0
171
           2
172
           0
173
           1
174
           0
175
           0
176
           2
177
           2
178
           3
270
           2
271
           2
272
           4
273
           2
274
           2
275
           0
280
           0
281
           0
282
           0
283
           1
284
           0
285
           0
286
           0
287
           3
288
           0
340
17
  0
DIMSTYLE
105
72B
100
AcDbSymbolTableRecord
100
AcDbDimStyleTableRecord
  2
ME10_DIM_17
 70
           0
  3

  4

  5

  6
_OPEN30
  7
_OPEN30
 40
1.0
 41
3.5
 42
0.7
 43
0.38
 44
2.0
 45
0.0
 46
0.0
 47
0.0
 48
0.0
 71
           0
 72
           0
 73
           0
 74
           0
 75
           0
 76
           0
 77
           1
 78
           8
140
3.5
141
0.09
142
0.0
143
25.4
144
1.0
145
0.0
146
1.0
147
0.625
170
           0
171
           2
172
           0
173
           1
174
           0
175
           0
176
           2
177
           2
178
           3
270
           2
271
           2
272
           4
273
           2
274
           2
275
           0
280
           0
281
           0
282
           0
283
           1
284
           0
285
           0
286
           0
287
           3
288
           0
340
17
  0
DIMSTYLE
105
73A
100
AcDbSymbolTableRecord
100
AcDbDimStyleTableRecord
  2
ME10_DIM_18
 70
           0
  3

  4

  5

  6
_OPEN30
  7
_OPEN30
 40
1.0
 41
3.5
 42
0.7
 43
0.38
 44
2.0
 45
0.0
 46
0.0
 47
0.0
 48
0.0
 71
           0
 72
           0
 73
           0
 74
           0
 75
           0
 76
           0
 77
           1
 78
           8
140
3.5
141
0.09
142
0.0
143
25.4
144
1.0
145
0.0
146
1.0
147
0.625
170
           0
171
           2
172
           0
173
           1
174
           0
175
           0
176
           2
177
           2
178
           3
270
           2
271
           2
272
           4
273
           2
274
           2
275
           0
280
           0
281
           0
282
           0
283
           1
284
           0
285
           0
286
           0
287
           3
288
           0
340
17
  0
DIMSTYLE
105
74B
100
AcDbSymbolTableRecord
100
AcDbDimStyleTableRecord
  2
ME10_DIM_19
 70
           0
  3
(<>)
  4

  5

  6
_OPEN30
  7
_OPEN30
 40
1.0
 41
3.5
 42
0.7
 43
0.38
 44
2.0
 45
0.0
 46
0.0
 47
0.0
 48
0.0
 71
           0
 72
           0
 73
           1
 74
           1
 75
           0
 76
           0
 77
           1
 78
           8
140
3.5
141
0.09
142
0.0
143
25.4
144
1.0
145
0.0
146
1.0
147
0.625
170
           0
171
           2
172
           0
173
           1
174
           0
175
           0
176
           2
177
           2
178
           3
270
           2
271
           2
272
           4
273
           2
274
           2
275
           0
280
           0
281
           0
282
           0
283
           1
284
           0
285
           0
286
           0
287
           3
288
           0
340
17
  0
DIMSTYLE
105
75C
100
AcDbSymbolTableRecord
100
AcDbDimStyleTableRecord
  2
ME10_DIM_20
 70
           0
  3
(設定寸法)
  4

  5

  6
_OPEN30
  7
_OPEN30
 40
1.0
 41
3.5
 42
0.7
 43
0.38
 44
2.0
 45
0.0
 46
0.0
 47
0.0
 48
0.0
 71
           0
 72
           0
 73
           0
 74
           0
 75
           0
 76
           0
 77
           1
 78
           8
140
3.5
141
0.09
142
0.0
143
25.4
144
1.0
145
0.0
146
1.0
147
0.625
170
           0
171
           2
172
           0
173
           1
174
           0
175
           0
176
           2
177
           2
178
           3
270
           2
271
           2
272
           4
273
           2
274
           2
275
           0
280
           0
281
           0
282
           0
283
           1
284
           0
285
           0
286
           0
287
           3
288
           0
340
17
  0
DIMSTYLE
105
788
100
AcDbSymbolTableRecord
100
AcDbDimStyleTableRecord
  2
ME10_DIM_21
 70
           0
  3
(<>)
  4

  5

  6
_OPEN30
  7
_OPEN30
 40
1.0
 41
3.5
 42
0.7
 43
0.38
 44
2.0
 45
0.0
 46
0.0
 47
0.0
 48
0.0
 71
           0
 72
           0
 73
           0
 74
           0
 75
           0
 76
           0
 77
           1
 78
           8
140
3.5
141
0.09
142
0.0
143
25.4
144
1.0
145
0.0
146
1.0
147
0.625
170
           0
171
           2
172
           0
173
           1
174
           0
175
           0
176
           2
177
           2
178
           3
270
           2
271
           2
272
           4
273
           2
274
           2
275
           0
280
           0
281
           0
282
           0
283
           1
284
           0
285
           0
286
           0
287
           3
288
           0
340
17
  0
ENDTAB
  0
TABLE
  2
BLOCK_RECORD
  5
1
100
AcDbSymbolTable
 70
         124
  0
BLOCK_RECORD
  5
A
100
AcDbSymbolTableRecord
100
AcDbBlockTableRecord
  2
*MODEL_SPACE
  0
BLOCK_RECORD
  5
B
100
AcDbSymbolTableRecord
100
AcDbBlockTableRecord
  2
*PAPER_SPACE
  0
BLOCK_RECORD
  5
25
100
AcDbSymbolTableRecord
100
AcDbBlockTableRecord
  2
_S____1
  0
BLOCK_RECORD
  5
27
100
AcDbSymbolTableRecord
100
AcDbBlockTableRecord
  2
_S____2
  0
BLOCK_RECORD
  5
29
100
AcDbSymbolTableRecord
100
AcDbBlockTableRecord
  2
_X_G_B_P____3
  0
BLOCK_RECORD
  5
2B
100
AcDbSymbolTableRecord
100
AcDbBlockTableRecord
  2
_X_G_B_P____4
  0
BLOCK_RECORD
  5
2D
100
AcDbSymbolTableRecord
100
AcDbBlockTableRecord
  2
M04_____MI__5
  0
BLOCK_RECORD
  5
2F
100
AcDbSymbolTableRecord
100
AcDbBlockTableRecord
  2
M04_____MI__6
  0
BLOCK_RECORD
  5
31
100
AcDbSymbolTableRecord
100
AcDbBlockTableRecord
  2
_X___X__7
  0
BLOCK_RECORD
  5
35
100
AcDbSymbolTableRecord
100
AcDbBlockTableRecord
  2
X_A______8
  0
BLOCK_RECORD
  5
37
100
AcDbSymbolTableRecord
100
AcDbBlockTableRecord
  2
A__9
  0
BLOCK_RECORD
  5
3A
100
AcDbSymbolTableRecord
100
AcDbBlockTableRecord
  2
M04_____MI__10
  0
BLOCK_RECORD
  5
3C
100
AcDbSymbolTableRecord
100
AcDbBlockTableRecord
  2
M04_____MI__11
  0
BLOCK_RECORD
  5
3E
100
AcDbSymbolTableRecord
100
AcDbBlockTableRecord
  2
_X___X__12
  0
BLOCK_RECORD
  5
42
100
AcDbSymbolTableRecord
100
AcDbBlockTableRecord
  2
X_A______13
  0
BLOCK_RECORD
  5
44
100
AcDbSymbolTableRecord
100
AcDbBlockTableRecord
  2
X_A______14
  0
BLOCK_RECORD
  5
46
100
AcDbSymbolTableRecord
100
AcDbBlockTableRecord
  2
_S____15
  0
BLOCK_RECORD
  5
48
100
AcDbSymbolTableRecord
100
AcDbBlockTableRecord
  2
X_A______16
  0
BLOCK_RECORD
  5
4B
100
AcDbSymbolTableRecord
100
AcDbBlockTableRecord
  2
A__17
  0
BLOCK_RECORD
  5
4D
100
AcDbSymbolTableRecord
100
AcDbBlockTableRecord
  2
STD_01_MI__18
  0
BLOCK_RECORD
  5
4F
100
AcDbSymbolTableRecord
100
AcDbBlockTableRecord
  2
STD_01_MI__19
  0
BLOCK_RECORD
  5
52
100
AcDbSymbolTableRecord
100
AcDbBlockTableRecord
  2
STD_01_MI__20
  0
BLOCK_RECORD
  5
54
100
AcDbSymbolTableRecord
100
AcDbBlockTableRecord
  2
STD_01_MI__21
  0
BLOCK_RECORD
  5
57
100
AcDbSymbolTableRecord
100
AcDbBlockTableRecord
  2
M05__M_D8_MI
  0
BLOCK_RECORD
  5
59
100
AcDbSymbolTableRecord
100
AcDbBlockTableRecord
  2
______22
  0
BLOCK_RECORD
  5
5B
100
AcDbSymbolTableRecord
100
AcDbBlockTableRecord
  2
_X_G_B_P___S__
  0
BLOCK_RECORD
  5
5D
100
AcDbSymbolTableRecord
100
AcDbBlockTableRecord
  2
_X_G_B_P___S__ASSY
  0
BLOCK_RECORD
  5
60
100
AcDbSymbolTableRecord
100
AcDbBlockTableRecord
  2
_X___C____
  0
BLOCK_RECORD
  5
62
100
AcDbSymbolTableRecord
100
AcDbBlockTableRecord
  2
_X___C____ASSY__23
  0
BLOCK_RECORD
  5
65
100
AcDbSymbolTableRecord
100
AcDbBlockTableRecord
  2
_A____
  0
BLOCK_RECORD
  5
67
100
AcDbSymbolTableRecord
100
AcDbBlockTableRecord
  2
__
  0
BLOCK_RECORD
  5
69
100
AcDbSymbolTableRecord
100
AcDbBlockTableRecord
  2
_A____ASSY
  0
BLOCK_RECORD
  5
6D
100
AcDbSymbolTableRecord
100
AcDbBlockTableRecord
  2
M3_M_2
  0
BLOCK_RECORD
  5
6F
100
AcDbSymbolTableRecord
100
AcDbBlockTableRecord
  2
_A______
  0
BLOCK_RECORD
  5
71
100
AcDbSymbolTableRecord
100
AcDbBlockTableRecord
  2
M3_M_2_1
  0
BLOCK_RECORD
  5
73
100
AcDbSymbolTableRecord
100
AcDbBlockTableRecord
  2
_K_C_H
  0
BLOCK_RECORD
  5
75
100
AcDbSymbolTableRecord
100
AcDbBlockTableRecord
  2
M4_TORASU_1
  0
BLOCK_RECORD
  5
77
100
AcDbSymbolTableRecord
100
AcDbBlockTableRecord
  2
_X___X__24
  0
BLOCK_RECORD
  5
79
100
AcDbSymbolTableRecord
100
AcDbBlockTableRecord
  2
_X___XASSY
  0
BLOCK_RECORD
  5
81
100
AcDbSymbolTableRecord
100
AcDbBlockTableRecord
  2
____ASSY_S_J__25
  0
BLOCK_RECORD
  5
86
100
AcDbSymbolTableRecord
100
AcDbBlockTableRecord
  2
A1__26
  0
BLOCK_RECORD
  5
8A
100
AcDbSymbolTableRecord
100
AcDbBlockTableRecord
  2
____1__27
  0
BLOCK_RECORD
  5
8D
100
AcDbSymbolTableRecord
100
AcDbBlockTableRecord
  2
______28
  0
BLOCK_RECORD
  5
8F
100
AcDbSymbolTableRecord
100
AcDbBlockTableRecord
  2
_G_E
  0
BLOCK_RECORD
  5
91
100
AcDbSymbolTableRecord
100
AcDbBlockTableRecord
  2
___Q_E
  0
BLOCK_RECORD
  5
93
100
AcDbSymbolTableRecord
100
AcDbBlockTableRecord
  2
_G_E_P_B_L__
  0
BLOCK_RECORD
  5
95
100
AcDbSymbolTableRecord
100
AcDbBlockTableRecord
  2
___O__
  0
BLOCK_RECORD
  5
97
100
AcDbSymbolTableRecord
100
AcDbBlockTableRecord
  2
___O__ASSY
  0
BLOCK_RECORD
  5
9A
100
AcDbSymbolTableRecord
100
AcDbBlockTableRecord
  2
_X___C____ASSY__29
  0
BLOCK_RECORD
  5
9D
100
AcDbSymbolTableRecord
100
AcDbBlockTableRecord
  2
____ASSY_S_J__30
  0
BLOCK_RECORD
  5
A0
100
AcDbSymbolTableRecord
100
AcDbBlockTableRecord
  2
A1__31
  0
BLOCK_RECORD
  5
A3
100
AcDbSymbolTableRecord
100
AcDbBlockTableRecord
  2
____1__32
  0
BLOCK_RECORD
  5
A6
100
AcDbSymbolTableRecord
100
AcDbBlockTableRecord
  2
______
  0
BLOCK_RECORD
  5
A8
100
AcDbSymbolTableRecord
100
AcDbBlockTableRecord
  2
SKB_A3__S
  0
BLOCK_RECORD
  5
AA
100
AcDbSymbolTableRecord
100
AcDbBlockTableRecord
  2
SKB_A3_MI
  0
BLOCK_RECORD
  5
AD
100
AcDbSymbolTableRecord
100
AcDbBlockTableRecord
  2
X_A______33
  0
BLOCK_RECORD
  5
AF
100
AcDbSymbolTableRecord
100
AcDbBlockTableRecord
  2
____
  0
BLOCK_RECORD
  5
611
100
AcDbSymbolTableRecord
100
AcDbBlockTableRecord
  2
*D55
  0
BLOCK_RECORD
  5
621
100
AcDbSymbolTableRecord
100
AcDbBlockTableRecord
  2
*D58
  0
BLOCK_RECORD
  5
630
100
AcDbSymbolTableRecord
100
AcDbBlockTableRecord
  2
*D61
  0
BLOCK_RECORD
  5
63F
100
AcDbSymbolTableRecord
100
AcDbBlockTableRecord
  2
*D64
  0
BLOCK_RECORD
  5
64E
100
AcDbSymbolTableRecord
100
AcDbBlockTableRecord
  2
*D67
  0
BLOCK_RECORD
  5
65D
100
AcDbSymbolTableRecord
100
AcDbBlockTableRecord
  2
*D70
  0
BLOCK_RECORD
  5
66E
100
AcDbSymbolTableRecord
100
AcDbBlockTableRecord
  2
*D73
  0
BLOCK_RECORD
  5
67F
100
AcDbSymbolTableRecord
100
AcDbBlockTableRecord
  2
*D76
  0
BLOCK_RECORD
  5
68E
100
AcDbSymbolTableRecord
100
AcDbBlockTableRecord
  2
*D79
  0
BLOCK_RECORD
  5
69F
100
AcDbSymbolTableRecord
100
AcDbBlockTableRecord
  2
*D82
  0
BLOCK_RECORD
  5
6AE
100
AcDbSymbolTableRecord
100
AcDbBlockTableRecord
  2
*D85
  0
BLOCK_RECORD
  5
6BF
100
AcDbSymbolTableRecord
100
AcDbBlockTableRecord
  2
*D88
  0
BLOCK_RECORD
  5
6CE
100
AcDbSymbolTableRecord
100
AcDbBlockTableRecord
  2
*D91
  0
BLOCK_RECORD
  5
6DD
100
AcDbSymbolTableRecord
100
AcDbBlockTableRecord
  2
*D94
  0
BLOCK_RECORD
  5
6EE
100
AcDbSymbolTableRecord
100
AcDbBlockTableRecord
  2
*D97
  0
BLOCK_RECORD
  5
6FD
100
AcDbSymbolTableRecord
100
AcDbBlockTableRecord
  2
*D100
  0
BLOCK_RECORD
  5
70C
100
AcDbSymbolTableRecord
100
AcDbBlockTableRecord
  2
*D103
  0
BLOCK_RECORD
  5
71D
100
AcDbSymbolTableRecord
100
AcDbBlockTableRecord
  2
*D106
  0
BLOCK_RECORD
  5
72D
100
AcDbSymbolTableRecord
100
AcDbBlockTableRecord
  2
*D109
  0
BLOCK_RECORD
  5
73C
100
AcDbSymbolTableRecord
100
AcDbBlockTableRecord
  2
*D112
  0
BLOCK_RECORD
  5
74D
100
AcDbSymbolTableRecord
100
AcDbBlockTableRecord
  2
*D115
  0
BLOCK_RECORD
  5
75E
100
AcDbSymbolTableRecord
100
AcDbBlockTableRecord
  2
*D118
  0
BLOCK_RECORD
  5
767
100
AcDbSymbolTableRecord
100
AcDbBlockTableRecord
  2
*D119
  0
BLOCK_RECORD
  5
770
100
AcDbSymbolTableRecord
100
AcDbBlockTableRecord
  2
*D120
  0
BLOCK_RECORD
  5
779
100
AcDbSymbolTableRecord
100
AcDbBlockTableRecord
  2
*D121
  0
ENDTAB
  0
ENDSEC
  0
SECTION
  2
BLOCKS
  0
BLOCK
  5
D
100
AcDbEntity
  8
0
100
AcDbBlockBegin
  2
*MODEL_SPACE
 70
           0
 10
0.0
 20
0.0
 30
0.0
  3
*MODEL_SPACE
  1

  0
ENDBLK
  5
E
100
AcDbEntity
  8
0
100
AcDbBlockEnd
  0
BLOCK
  5
F
100
AcDbEntity
 67
           1
  8
0
100
AcDbBlockBegin
  2
*PAPER_SPACE
 70
           0
 10
0.0
 20
0.0
 30
0.0
  3
*PAPER_SPACE
  1

  0
ENDBLK
  5
10
100
AcDbEntity
 67
           1
  8
0
100
AcDbBlockEnd
  0
BLOCK
  5
26
100
AcDbEntity
  8
0
100
AcDbBlockBegin
  2
_S____1
 70
           0
 10
0.0
 20
0.0
 30
0.0
  3
_S____1
  1

  0
ARC
  5
D8
100
AcDbEntity
  8
1
  6
CENTER_DASH_DASH
 62
           2
100
AcDbCircle
 10
-264.220630199249
 20
-1449.012360034584
 40
0.3
100
AcDbArc
 50
180.0
 51
-90.0
  0
ARC
  5
D7
100
AcDbEntity
  8
1
  6
CENTER_DASH_DASH
 62
           2
100
AcDbCircle
 10
-263.320630199249
 20
-1449.012360034584
 40
0.3
100
AcDbArc
 50
-90.0
 51
0.0
  0
ARC
  5
D6
100
AcDbEntity
  8
1
  6
CENTER_DASH_DASH
 62
           2
100
AcDbCircle
 10
-264.220630199249
 20
-1438.812360034584
 40
0.3
100
AcDbArc
 50
90.0
 51
180.0
  0
ARC
  5
D5
100
AcDbEntity
  8
1
  6
CENTER_DASH_DASH
 62
           2
100
AcDbCircle
 10
-263.320630199249
 20
-1438.812360034584
 40
0.3
100
AcDbArc
 50
0.0
 51
90.0
  0
LINE
  5
D4
100
AcDbEntity
  8
1
  6
CENTER_DASH_DASH
 62
           2
100
AcDbLine
 10
-263.320630199249
 20
-1449.312360034584
 11
-264.220630199249
 21
-1449.312360034584
  0
LINE
  5
D3
100
AcDbEntity
  8
1
  6
CENTER_DASH_DASH
 62
           2
100
AcDbLine
 10
-251.520630199249
 20
-1447.312360034584
 11
-263.020630199249
 21
-1447.312360034584
  0
LINE
  5
D2
100
AcDbEntity
  8
1
  6
CENTER_DASH_DASH
 62
           2
100
AcDbLine
 10
-251.520630199249
 20
-1440.512360034584
 11
-251.520630199249
 21
-1447.312360034584
  0
LINE
  5
D1
100
AcDbEntity
  8
1
  6
DASH_CENTER
 62
           1
100
AcDbLine
 10
-266.254453223449
 20
-1443.912360034584
 11
-249.744684050199
 21
-1443.912360034584
  0
LINE
  5
D0
100
AcDbEntity
  8
1
  6
CENTER_DASH_DASH
 62
           2
100
AcDbLine
 10
-263.020630199249
 20
-1440.512360034584
 11
-251.520630199249
 21
-1440.512360034584
  0
LINE
  5
CF
100
AcDbEntity
  8
1
  6
CENTER_DASH_DASH
 62
           2
100
AcDbLine
 10
-264.220630199249
 20
-1438.512360034584
 11
-263.320630199249
 21
-1438.512360034584
  0
LINE
  5
CE
100
AcDbEntity
  8
1
  6
CENTER_DASH_DASH
 62
           2
100
AcDbLine
 10
-263.320630199249
 20
-1438.512360034584
 11
-263.320630199249
 21
-1438.512360034584
  0
LINE
  5
CD
100
AcDbEntity
  8
1
  6
CENTER_DASH_DASH
 62
           2
100
AcDbLine
 10
-263.020630199249
 20
-1449.012360034584
 11
-263.020630199249
 21
-1438.812360034584
  0
LINE
  5
CC
100
AcDbEntity
  8
1
  6
CENTER_DASH_DASH
 62
           2
100
AcDbLine
 10
-264.520630199249
 20
-1449.012360034584
 11
-264.520630199249
 21
-1438.812360034584
  0
ENDBLK
  5
D9
100
AcDbEntity
  8
0
100
AcDbBlockEnd
  0
BLOCK
  5
28
100
AcDbEntity
  8
0
100
AcDbBlockBegin
  2
_S____2
 70
           0
 10
0.0
 20
0.0
 30
0.0
  3
_S____2
  1

  0
ARC
  5
E6
100
AcDbEntity
  8
1
  6
CENTER_DASH_DASH
 62
           2
100
AcDbCircle
 10
-199.520630199247
 20
-1438.812360034584
 40
0.3
100
AcDbArc
 50
0.0
 51
90.0
  0
ARC
  5
E5
100
AcDbEntity
  8
1
  6
CENTER_DASH_DASH
 62
           2
100
AcDbCircle
 10
-200.420630199247
 20
-1438.812360034584
 40
0.3
100
AcDbArc
 50
90.0
 51
180.0
  0
ARC
  5
E4
100
AcDbEntity
  8
1
  6
CENTER_DASH_DASH
 62
           2
100
AcDbCircle
 10
-199.520630199247
 20
-1449.012360034584
 40
0.3
100
AcDbArc
 50
-90.0
 51
0.0
  0
ARC
  5
E3
100
AcDbEntity
  8
1
  6
CENTER_DASH_DASH
 62
           2
100
AcDbCircle
 10
-200.420630199247
 20
-1449.012360034584
 40
0.3
100
AcDbArc
 50
180.0
 51
-90.0
  0
LINE
  5
E2
100
AcDbEntity
  8
1
  6
CENTER_DASH_DASH
 62
           2
100
AcDbLine
 10
-200.720630199247
 20
-1449.012360034584
 11
-200.720630199247
 21
-1438.812360034584
  0
LINE
  5
E1
100
AcDbEntity
  8
1
  6
CENTER_DASH_DASH
 62
           2
100
AcDbLine
 10
-199.220630199247
 20
-1449.012360034584
 11
-199.220630199247
 21
-1438.812360034584
  0
LINE
  5
E0
100
AcDbEntity
  8
1
  6
CENTER_DASH_DASH
 62
           2
100
AcDbLine
 10
-199.520630199247
 20
-1438.512360034584
 11
-199.520630199247
 21
-1438.512360034584
  0
LINE
  5
DF
100
AcDbEntity
  8
1
  6
CENTER_DASH_DASH
 62
           2
100
AcDbLine
 10
-200.420630199247
 20
-1438.512360034584
 11
-199.520630199247
 21
-1438.512360034584
  0
LINE
  5
DE
100
AcDbEntity
  8
1
  6
CENTER_DASH_DASH
 62
           2
100
AcDbLine
 10
-199.220630199247
 20
-1440.512360034584
 11
-187.720630199247
 21
-1440.512360034584
  0
LINE
  5
DD
100
AcDbEntity
  8
1
  6
DASH_CENTER
 62
           1
100
AcDbLine
 10
-202.454453223447
 20
-1443.912360034584
 11
-185.944684050197
 21
-1443.912360034584
  0
LINE
  5
DC
100
AcDbEntity
  8
1
  6
CENTER_DASH_DASH
 62
           2
100
AcDbLine
 10
-187.720630199247
 20
-1440.512360034584
 11
-187.720630199247
 21
-1447.312360034584
  0
LINE
  5
DB
100
AcDbEntity
  8
1
  6
CENTER_DASH_DASH
 62
           2
100
AcDbLine
 10
-187.720630199247
 20
-1447.312360034584
 11
-199.220630199247
 21
-1447.312360034584
  0
LINE
  5
DA
100
AcDbEntity
  8
1
  6
CENTER_DASH_DASH
 62
           2
100
AcDbLine
 10
-199.520630199247
 20
-1449.312360034584
 11
-200.420630199247
 21
-1449.312360034584
  0
ENDBLK
  5
E7
100
AcDbEntity
  8
0
100
AcDbBlockEnd
  0
BLOCK
  5
2A
100
AcDbEntity
  8
0
100
AcDbBlockBegin
  2
_X_G_B_P____3
 70
           0
 10
0.0
 20
0.0
 30
0.0
  3
_X_G_B_P____3
  1

  0
ARC
  5
FF
100
AcDbEntity
  8
1
  6
CONTINUOUS
 62
           7
100
AcDbCircle
 10
-262.220630199254
 20
-1490.862360034584
 40
0.299999999999
100
AcDbArc
 50
180.0
 51
-90.0
  0
ARC
  5
FE
100
AcDbEntity
  8
1
  6
CONTINUOUS
 62
           7
100
AcDbCircle
 10
-262.220630199254
 20
-1486.962360034584
 40
0.3
100
AcDbArc
 50
90.0
 51
180.0
  0
ARC
  5
FD
100
AcDbEntity
  8
1
  6
CONTINUOUS
 62
           7
100
AcDbCircle
 10
-261.720630199254
 20
-1497.912360034584
 40
1.0
100
AcDbArc
 50
-90.0
 51
0.0
  0
ARC
  5
FC
100
AcDbEntity
  8
1
  6
CONTINUOUS
 62
           7
100
AcDbCircle
 10
-263.098818079788
 20
-1507.349489985436
 40
1.000000000001
100
AcDbArc
 50
141.267489548503
 51
-173.732510451586
  0
ARC
  5
FB
100
AcDbEntity
  8
1
  6
CONTINUOUS
 62
           7
100
AcDbCircle
 10
-261.876110656208
 20
-1518.482548260516
 40
1.000000000001
100
AcDbArc
 50
-173.732510451522
 51
-128.732510451546
  0
ARC
  5
FA
100
AcDbEntity
  8
1
  6
CONTINUOUS
 62
           7
100
AcDbCircle
 10
-263.220630199254
 20
-1498.912360034584
 40
1.0
100
AcDbArc
 50
90.0
 51
-168.667254484528
  0
LINE
  5
F9
100
AcDbEntity
  8
1
  6
CONTINUOUS
 62
           7
100
AcDbLine
 10
-262.520630199253
 20
-1490.862360034584
 11
-262.520630199253
 21
-1486.962360034584
  0
LINE
  5
F8
100
AcDbEntity
  8
1
  6
CONTINUOUS
 62
           7
100
AcDbLine
 10
-261.720630199254
 20
-1491.162360034584
 11
-262.220630199254
 21
-1491.162360034584
  0
LINE
  5
F7
100
AcDbEntity
  8
1
  6
CONTINUOUS
 62
           7
100
AcDbLine
 10
-262.220630199254
 20
-1486.662360034584
 11
-261.720630199254
 21
-1486.662360034584
  0
LINE
  5
F6
100
AcDbEntity
  8
1
  6
DASH_CENTER
 62
           4
100
AcDbLine
 10
-263.459825278813
 20
-1488.912360034584
 11
-258.162447625913
 21
-1488.912360034584
  0
LINE
  5
F5
100
AcDbEntity
  8
1
  6
DOT_CENTER
 62
           4
100
AcDbLine
 10
-264.475510488549
 20
-1513.134359734329
 11
-260.698222859504
 21
-1512.719512572757
  0
LINE
  5
F4
100
AcDbEntity
  8
1
  6
CONTINUOUS
 62
           7
100
AcDbLine
 10
-260.948336142227
 20
-1519.602168297072
 11
-262.436155697331
 21
-1506.055197459797
  0
LINE
  5
F3
100
AcDbEntity
  8
1
  6
CONTINUOUS
 62
           7
100
AcDbLine
 10
-262.436155697331
 20
-1506.055197459797
 11
-263.220630199254
 21
-1498.912360034584
  0
LINE
  5
F2
100
AcDbEntity
  8
1
  6
CONTINUOUS
 62
           7
100
AcDbLine
 10
-262.501796039336
 20
-1519.26262377054
 11
-261.942359202503
 21
-1519.711338602748
  0
LINE
  5
F1
100
AcDbEntity
  8
1
  6
CONTINUOUS
 62
           7
100
AcDbLine
 10
-264.092841140064
 20
-1507.458660291112
 11
-262.870133716484
 21
-1518.591718566193
  0
LINE
  5
F0
100
AcDbEntity
  8
1
  6
CONTINUOUS
 62
           7
100
AcDbLine
 10
-263.430178757605
 20
-1506.164367765474
 11
-263.878893589814
 21
-1506.723804602308
  0
LINE
  5
EF
100
AcDbEntity
  8
1
  6
CONTINUOUS
 62
           7
100
AcDbLine
 10
-260.720630199256
 20
-1521.675488114881
 11
-260.948336142227
 21
-1519.602168297072
  0
LINE
  5
EE
100
AcDbEntity
  8
1
  6
CONTINUOUS
 62
           7
100
AcDbLine
 10
-261.71465325953
 20
-1521.784658420557
 11
-260.720630199256
 21
-1521.675488114881
  0
LINE
  5
ED
100
AcDbEntity
  8
1
  6
CONTINUOUS
 62
           7
100
AcDbLine
 10
-264.214653259529
 20
-1499.021530340262
 11
-261.71465325953
 21
-1521.784658420557
  0
LINE
  5
EC
100
AcDbEntity
  8
1
  6
CONTINUOUS
 62
           7
100
AcDbLine
 10
-261.720630199254
 20
-1498.912360034584
 11
-263.220630199254
 21
-1498.912360034584
  0
LINE
  5
EB
100
AcDbEntity
  8
1
  6
CONTINUOUS
 62
           7
100
AcDbLine
 10
-260.720630199254
 20
-1483.912360034584
 11
-260.720630199254
 21
-1497.912360034584
  0
LINE
  5
EA
100
AcDbEntity
  8
1
  6
CONTINUOUS
 62
           7
100
AcDbLine
 10
-261.720630199254
 20
-1483.912360034584
 11
-260.720630199254
 21
-1483.912360034584
  0
LINE
  5
E9
100
AcDbEntity
  8
1
  6
CONTINUOUS
 62
           7
100
AcDbLine
 10
-261.720630199254
 20
-1497.912360034584
 11
-263.220630199254
 21
-1497.912360034584
  0
LINE
  5
E8
100
AcDbEntity
  8
1
  6
CONTINUOUS
 62
           7
100
AcDbLine
 10
-261.720630199254
 20
-1483.912360034584
 11
-261.720630199254
 21
-1497.912360034584
  0
ENDBLK
  5
100
100
AcDbEntity
  8
0
100
AcDbBlockEnd
  0
BLOCK
  5
2C
100
AcDbEntity
  8
0
100
AcDbBlockBegin
  2
_X_G_B_P____4
 70
           0
 10
0.0
 20
0.0
 30
0.0
  3
_X_G_B_P____4
  1

  0
ARC
  5
117
100
AcDbEntity
  8
1
  6
CONTINUOUS
 62
           7
100
AcDbCircle
 10
-198.076110656206
 20
-1503.482548260516
 40
1.000000000001
100
AcDbArc
 50
-173.732510451522
 51
-128.73251045154
  0
ARC
  5
116
100
AcDbEntity
  8
1
  6
CONTINUOUS
 62
           7
100
AcDbCircle
 10
-199.298818079786
 20
-1492.349489985436
 40
1.000000000001
100
AcDbArc
 50
141.267489548525
 51
-173.732510451587
  0
ARC
  5
115
100
AcDbEntity
  8
1
  6
CONTINUOUS
 62
           7
100
AcDbCircle
 10
-197.920630199252
 20
-1482.912360034584
 40
1.0
100
AcDbArc
 50
-90.0
 51
0.0
  0
ARC
  5
114
100
AcDbEntity
  8
1
  6
CONTINUOUS
 62
           7
100
AcDbCircle
 10
-198.420630199252
 20
-1471.962360034584
 40
0.3
100
AcDbArc
 50
90.0
 51
180.0
  0
ARC
  5
113
100
AcDbEntity
  8
1
  6
CONTINUOUS
 62
           7
100
AcDbCircle
 10
-198.420630199252
 20
-1475.862360034584
 40
0.299999999999
100
AcDbArc
 50
180.0
 51
-90.0
  0
ARC
  5
112
100
AcDbEntity
  8
1
  6
CONTINUOUS
 62
           7
100
AcDbCircle
 10
-199.420630199252
 20
-1483.912360034584
 40
1.0
100
AcDbArc
 50
90.0
 51
-168.667254484524
  0
LINE
  5
111
100
AcDbEntity
  8
1
  6
CONTINUOUS
 62
           7
100
AcDbLine
 10
-197.920630199252
 20
-1468.912360034584
 11
-197.920630199252
 21
-1482.912360034584
  0
LINE
  5
110
100
AcDbEntity
  8
1
  6
CONTINUOUS
 62
           7
100
AcDbLine
 10
-197.920630199252
 20
-1482.912360034584
 11
-199.420630199252
 21
-1482.912360034584
  0
LINE
  5
10F
100
AcDbEntity
  8
1
  6
CONTINUOUS
 62
           7
100
AcDbLine
 10
-197.920630199252
 20
-1468.912360034584
 11
-196.920630199252
 21
-1468.912360034584
  0
LINE
  5
10E
100
AcDbEntity
  8
1
  6
CONTINUOUS
 62
           7
100
AcDbLine
 10
-196.920630199252
 20
-1468.912360034584
 11
-196.920630199252
 21
-1482.912360034584
  0
LINE
  5
10D
100
AcDbEntity
  8
1
  6
CONTINUOUS
 62
           7
100
AcDbLine
 10
-197.920630199252
 20
-1483.912360034584
 11
-199.420630199252
 21
-1483.912360034584
  0
LINE
  5
10C
100
AcDbEntity
  8
1
  6
CONTINUOUS
 62
           7
100
AcDbLine
 10
-200.414653259527
 20
-1484.021530340262
 11
-197.914653259528
 21
-1506.784658420557
  0
LINE
  5
10B
100
AcDbEntity
  8
1
  6
CONTINUOUS
 62
           7
100
AcDbLine
 10
-197.914653259528
 20
-1506.784658420557
 11
-196.920630199254
 21
-1506.675488114881
  0
LINE
  5
10A
100
AcDbEntity
  8
1
  6
CONTINUOUS
 62
           7
100
AcDbLine
 10
-196.920630199254
 20
-1506.675488114881
 11
-197.148336142225
 21
-1504.602168297072
  0
LINE
  5
109
100
AcDbEntity
  8
1
  6
CONTINUOUS
 62
           7
100
AcDbLine
 10
-199.630178757603
 20
-1491.164367765474
 11
-200.078893589812
 21
-1491.723804602308
  0
LINE
  5
108
100
AcDbEntity
  8
1
  6
CONTINUOUS
 62
           7
100
AcDbLine
 10
-200.292841140062
 20
-1492.458660291112
 11
-199.070133716482
 21
-1503.591718566193
  0
LINE
  5
107
100
AcDbEntity
  8
1
  6
CONTINUOUS
 62
           7
100
AcDbLine
 10
-198.701796039334
 20
-1504.26262377054
 11
-198.142359202501
 21
-1504.711338602748
  0
LINE
  5
106
100
AcDbEntity
  8
1
  6
CONTINUOUS
 62
           7
100
AcDbLine
 10
-198.636155697329
 20
-1491.055197459797
 11
-199.420630199252
 21
-1483.912360034584
  0
LINE
  5
105
100
AcDbEntity
  8
1
  6
CONTINUOUS
 62
           7
100
AcDbLine
 10
-197.148336142225
 20
-1504.602168297072
 11
-198.636155697329
 21
-1491.055197459797
  0
LINE
  5
104
100
AcDbEntity
  8
1
  6
DOT_CENTER
 62
           4
100
AcDbLine
 10
-200.675510488547
 20
-1498.134359734329
 11
-196.898222859502
 21
-1497.719512572757
  0
LINE
  5
103
100
AcDbEntity
  8
1
  6
CONTINUOUS
 62
           7
100
AcDbLine
 10
-198.420630199252
 20
-1471.662360034584
 11
-197.920630199252
 21
-1471.662360034584
  0
LINE
  5
102
100
AcDbEntity
  8
1
  6
CONTINUOUS
 62
           7
100
AcDbLine
 10
-197.920630199252
 20
-1476.162360034584
 11
-198.420630199252
 21
-1476.162360034584
  0
LINE
  5
101
100
AcDbEntity
  8
1
  6
CONTINUOUS
 62
           7
100
AcDbLine
 10
-198.720630199251
 20
-1475.862360034584
 11
-198.720630199251
 21
-1471.962360034584
  0
ENDBLK
  5
118
100
AcDbEntity
  8
0
100
AcDbBlockEnd
  0
BLOCK
  5
2E
100
AcDbEntity
  8
0
100
AcDbBlockBegin
  2
M04_____MI__5
 70
           0
 10
0.0
 20
0.0
 30
0.0
  3
M04_____MI__5
  1

  0
ARC
  5
12B
100
AcDbEntity
  8
1
  6
CENTER_DASH_DASH
 62
           2
100
AcDbCircle
 10
-270.973963532583
 20
-1399.825693367918
 40
6.453915263019
100
AcDbArc
 50
-0.769421858324
 51
45.627759168973
  0
ARC
  5
12A
100
AcDbEntity
  8
1
  6
CENTER_DASH_DASH
 62
           2
100
AcDbCircle
 10
-270.973963532583
 20
-1399.999026701251
 40
6.453915263018
100
AcDbArc
 50
-45.627759168967
 51
0.769421858332
  0
LINE
  5
129
100
AcDbEntity
  8
1
  6
DOT_CENTER
 62
           1
100
AcDbLine
 10
-262.350551533996
 20
-1399.912360034585
 11
-274.619126201921
 21
-1399.912360034584
  0
LINE
  5
128
100
AcDbEntity
  8
1
  6
CENTER_DASH_DASH
 62
           2
100
AcDbLine
 10
-272.620630199249
 20
-1397.912360034584
 11
-267.020630199249
 21
-1397.912360034584
  0
LINE
  5
127
100
AcDbEntity
  8
1
  6
CENTER_DASH_DASH
 62
           2
100
AcDbLine
 10
-267.020630199249
 20
-1401.912360034584
 11
-272.62063019925
 21
-1401.912360034584
  0
LINE
  5
126
100
AcDbEntity
  8
1
  6
CENTER_DASH_DASH
 62
           2
100
AcDbLine
 10
-273.020630199249
 20
-1398.312360034584
 11
-267.020630199249
 21
-1398.312360034584
  0
LINE
  5
125
100
AcDbEntity
  8
1
  6
CENTER_DASH_DASH
 62
           2
100
AcDbLine
 10
-267.020630199249
 20
-1401.512360034584
 11
-273.020630199249
 21
-1401.512360034584
  0
LINE
  5
124
100
AcDbEntity
  8
1
  6
CENTER_DASH_DASH
 62
           2
100
AcDbLine
 10
-273.020630199249
 20
-1401.512360034584
 11
-273.020630199249
 21
-1398.312360034584
  0
LINE
  5
123
100
AcDbEntity
  8
1
  6
CENTER_DASH_DASH
 62
           2
100
AcDbLine
 10
-272.62063019925
 20
-1401.912360034584
 11
-273.020630199249
 21
-1401.512360034584
  0
LINE
  5
122
100
AcDbEntity
  8
1
  6
CENTER_DASH_DASH
 62
           2
100
AcDbLine
 10
-272.620630199249
 20
-1397.912360034584
 11
-273.020630199249
 21
-1398.312360034584
  0
LINE
  5
121
100
AcDbEntity
  8
1
  6
CENTER_DASH_DASH
 62
           2
100
AcDbLine
 10
-272.62063019925
 20
-1401.912360034584
 11
-272.620630199249
 21
-1397.912360034584
  0
LINE
  5
120
100
AcDbEntity
  8
1
  6
CENTER_DASH_DASH
 62
           4
100
AcDbLine
 10
-266.5311233752
 20
-1398.667380153891
 11
-267.020630199249
 21
-1399.912360034585
  0
LINE
  5
11F
100
AcDbEntity
  8
1
  6
CENTER_DASH_DASH
 62
           4
100
AcDbLine
 10
-266.5311233752
 20
-1401.157339915279
 11
-264.859515685266
 21
-1401.872969241043
  0
LINE
  5
11E
100
AcDbEntity
  8
1
  6
CENTER_DASH_DASH
 62
           4
100
AcDbLine
 10
-267.020630199249
 20
-1399.912360034585
 11
-266.5311233752
 21
-1401.157339915279
  0
LINE
  5
11D
100
AcDbEntity
  8
1
  6
CENTER_DASH_DASH
 62
           2
100
AcDbLine
 10
-266.46063019925
 20
-1395.212360034584
 11
-267.020630199249
 21
-1395.358435119909
  0
LINE
  5
11C
100
AcDbEntity
  8
1
  6
CENTER_DASH_DASH
 62
           2
100
AcDbLine
 10
-266.46063019925
 20
-1395.212360034584
 11
-266.46063019925
 21
-1404.612360034584
  0
LINE
  5
11B
100
AcDbEntity
  8
1
  6
CENTER_DASH_DASH
 62
           2
100
AcDbLine
 10
-267.020630199249
 20
-1404.46628494926
 11
-266.46063019925
 21
-1404.612360034584
  0
LINE
  5
11A
100
AcDbEntity
  8
1
  6
CENTER_DASH_DASH
 62
           4
100
AcDbLine
 10
-264.859515685266
 20
-1397.951750828125
 11
-266.5311233752
 21
-1398.667380153891
  0
LINE
  5
119
100
AcDbEntity
  8
1
  6
CENTER_DASH_DASH
 62
           2
100
AcDbLine
 10
-267.020630199249
 20
-1395.358435119909
 11
-267.020630199249
 21
-1404.46628494926
  0
ENDBLK
  5
12C
100
AcDbEntity
  8
0
100
AcDbBlockEnd
  0
BLOCK
  5
30
100
AcDbEntity
  8
0
100
AcDbBlockBegin
  2
M04_____MI__6
 70
           0
 10
0.0
 20
0.0
 30
0.0
  3
M04_____MI__6
  1

  0
ARC
  5
13F
100
AcDbEntity
  8
1
  6
CENTER_DASH_DASH
 62
           2
100
AcDbCircle
 10
-270.973963532583
 20
-1334.99902670125
 40
6.453915263018
100
AcDbArc
 50
-45.627759168967
 51
0.769421858332
  0
ARC
  5
13E
100
AcDbEntity
  8
1
  6
CENTER_DASH_DASH
 62
           2
100
AcDbCircle
 10
-270.973963532583
 20
-1334.825693367917
 40
6.453915263019
100
AcDbArc
 50
-0.769421858322
 51
45.627759168973
  0
LINE
  5
13D
100
AcDbEntity
  8
1
  6
CENTER_DASH_DASH
 62
           2
100
AcDbLine
 10
-267.020630199249
 20
-1330.358435119908
 11
-267.020630199249
 21
-1339.466284949259
  0
LINE
  5
13C
100
AcDbEntity
  8
1
  6
CENTER_DASH_DASH
 62
           4
100
AcDbLine
 10
-264.859515685266
 20
-1332.951750828124
 11
-266.5311233752
 21
-1333.667380153889
  0
LINE
  5
13B
100
AcDbEntity
  8
1
  6
CENTER_DASH_DASH
 62
           2
100
AcDbLine
 10
-267.020630199249
 20
-1339.466284949259
 11
-266.46063019925
 21
-1339.612360034583
  0
LINE
  5
13A
100
AcDbEntity
  8
1
  6
CENTER_DASH_DASH
 62
           2
100
AcDbLine
 10
-266.46063019925
 20
-1330.212360034583
 11
-266.46063019925
 21
-1339.612360034583
  0
LINE
  5
139
100
AcDbEntity
  8
1
  6
CENTER_DASH_DASH
 62
           2
100
AcDbLine
 10
-266.46063019925
 20
-1330.212360034583
 11
-267.020630199249
 21
-1330.358435119908
  0
LINE
  5
138
100
AcDbEntity
  8
1
  6
CENTER_DASH_DASH
 62
           4
100
AcDbLine
 10
-267.020630199249
 20
-1334.912360034583
 11
-266.5311233752
 21
-1336.157339915278
  0
LINE
  5
137
100
AcDbEntity
  8
1
  6
CENTER_DASH_DASH
 62
           4
100
AcDbLine
 10
-266.5311233752
 20
-1336.157339915278
 11
-264.859515685266
 21
-1336.872969241042
  0
LINE
  5
136
100
AcDbEntity
  8
1
  6
CENTER_DASH_DASH
 62
           4
100
AcDbLine
 10
-266.5311233752
 20
-1333.667380153889
 11
-267.020630199249
 21
-1334.912360034583
  0
LINE
  5
135
100
AcDbEntity
  8
1
  6
CENTER_DASH_DASH
 62
           2
100
AcDbLine
 10
-272.62063019925
 20
-1336.912360034583
 11
-272.620630199249
 21
-1332.912360034583
  0
LINE
  5
134
100
AcDbEntity
  8
1
  6
CENTER_DASH_DASH
 62
           2
100
AcDbLine
 10
-272.620630199249
 20
-1332.912360034583
 11
-273.020630199249
 21
-1333.312360034583
  0
LINE
  5
133
100
AcDbEntity
  8
1
  6
CENTER_DASH_DASH
 62
           2
100
AcDbLine
 10
-272.62063019925
 20
-1336.912360034583
 11
-273.020630199249
 21
-1336.512360034583
  0
LINE
  5
132
100
AcDbEntity
  8
1
  6
CENTER_DASH_DASH
 62
           2
100
AcDbLine
 10
-273.020630199249
 20
-1336.512360034583
 11
-273.020630199249
 21
-1333.312360034583
  0
LINE
  5
131
100
AcDbEntity
  8
1
  6
CENTER_DASH_DASH
 62
           2
100
AcDbLine
 10
-267.020630199249
 20
-1336.512360034583
 11
-273.020630199249
 21
-1336.512360034583
  0
LINE
  5
130
100
AcDbEntity
  8
1
  6
CENTER_DASH_DASH
 62
           2
100
AcDbLine
 10
-273.020630199249
 20
-1333.312360034583
 11
-267.020630199249
 21
-1333.312360034583
  0
LINE
  5
12F
100
AcDbEntity
  8
1
  6
CENTER_DASH_DASH
 62
           2
100
AcDbLine
 10
-267.020630199249
 20
-1336.912360034583
 11
-272.62063019925
 21
-1336.912360034583
  0
LINE
  5
12E
100
AcDbEntity
  8
1
  6
CENTER_DASH_DASH
 62
           2
100
AcDbLine
 10
-272.620630199249
 20
-1332.912360034583
 11
-267.020630199249
 21
-1332.912360034584
  0
LINE
  5
12D
100
AcDbEntity
  8
1
  6
DOT_CENTER
 62
           1
100
AcDbLine
 10
-262.350551533996
 20
-1334.912360034584
 11
-274.619126201921
 21
-1334.912360034583
  0
ENDBLK
  5
140
100
AcDbEntity
  8
0
100
AcDbBlockEnd
  0
BLOCK
  5
32
100
AcDbEntity
  8
0
100
AcDbBlockBegin
  2
_X___X__7
 70
           0
 10
0.0
 20
0.0
 30
0.0
  3
_X___X__7
  1

  0
ARC
  5
17C
100
AcDbEntity
  8
1
  6
CONTINUOUS
 62
           7
100
AcDbCircle
 10
-258.32063019925
 20
-1393.612360034584
 40
0.3
100
AcDbArc
 50
-90.0
 51
0.0
  0
ARC
  5
17B
100
AcDbEntity
  8
1
  6
CONTINUOUS
 62
           7
100
AcDbCircle
 10
-258.32063019925
 20
-1388.212360034584
 40
0.299999999999
100
AcDbArc
 50
0.0
 51
90.0
  0
ARC
  5
17A
100
AcDbEntity
  8
1
  6
CONTINUOUS
 62
           7
100
AcDbCircle
 10
-258.32063019925
 20
-1373.212360034584
 40
0.299999999999
100
AcDbArc
 50
0.0
 51
90.0
  0
ARC
  5
179
100
AcDbEntity
  8
1
  6
CONTINUOUS
 62
           7
100
AcDbCircle
 10
-258.32063019925
 20
-1378.612360034584
 40
0.3
100
AcDbArc
 50
-90.0
 51
0.0
  0
ARC
  5
178
100
AcDbEntity
  8
1
  6
CONTINUOUS
 62
           7
100
AcDbCircle
 10
-262.620630199254
 20
-1354.844407006816
 40
1.0
100
AcDbArc
 50
180.0
 51
-176.10357567391
  0
ARC
  5
177
100
AcDbEntity
  8
1
  6
CONTINUOUS
 62
           7
100
AcDbCircle
 10
-262.520630199249
 20
-1368.412360034584
 40
1.0
100
AcDbArc
 50
-90.0
 51
0.0
  0
ARC
  5
176
100
AcDbEntity
  8
1
  6
CONTINUOUS
 62
           7
100
AcDbCircle
 10
-265.270630199249
 20
-1354.862360034582
 40
0.349999999998
100
AcDbArc
 50
-8.565828059514
 51
-3.887909560865
  0
LINE
  5
175
100
AcDbEntity
  8
1
  6
CONTINUOUS
 62
           7
100
AcDbLine
 10
-259.520630199249
 20
-1392.912360034584
 11
-259.520630199249
 21
-1395.462360034584
  0
LINE
  5
174
100
AcDbEntity
  8
1
  6
CONTINUOUS
 62
           7
100
AcDbLine
 10
-259.520630199249
 20
-1373.912360034584
 11
-259.520630199249
 21
-1371.362360034584
  0
LINE
  5
173
100
AcDbEntity
  8
1
  6
CONTINUOUS
 62
           7
100
AcDbLine
 10
-260.32063019925
 20
-1395.462360034584
 11
-260.32063019925
 21
-1371.362360034584
  0
LINE
  5
172
100
AcDbEntity
  8
1
  6
CONTINUOUS
 62
           7
100
AcDbLine
 10
-258.020630199251
 20
-1393.612360034584
 11
-258.020630199251
 21
-1388.212360034584
  0
LINE
  5
171
100
AcDbEntity
  8
1
  6
CONTINUOUS
 62
           7
100
AcDbLine
 10
-258.32063019925
 20
-1393.912360034584
 11
-259.020630199249
 21
-1393.912360034584
  0
LINE
  5
170
100
AcDbEntity
  8
1
  6
CONTINUOUS
 62
           7
100
AcDbLine
 10
-259.020630199249
 20
-1387.912360034584
 11
-258.32063019925
 21
-1387.912360034584
  0
LINE
  5
16F
100
AcDbEntity
  8
1
  6
CONTINUOUS
 62
           7
100
AcDbLine
 10
-260.32063019925
 20
-1388.912360034584
 11
-259.020630199249
 21
-1388.912360034584
  0
LINE
  5
16E
100
AcDbEntity
  8
1
  6
CONTINUOUS
 62
           7
100
AcDbLine
 10
-260.32063019925
 20
-1392.912360034584
 11
-259.020630199249
 21
-1392.912360034584
  0
LINE
  5
16D
100
AcDbEntity
  8
1
  6
CONTINUOUS
 62
           7
100
AcDbLine
 10
-259.020630199249
 20
-1393.912360034584
 11
-259.020630199249
 21
-1387.912360034584
  0
LINE
  5
16C
100
AcDbEntity
  8
1
  6
CONTINUOUS
 62
           7
100
AcDbLine
 10
-259.020630199249
 20
-1378.912360034584
 11
-259.020630199249
 21
-1372.912360034584
  0
LINE
  5
16B
100
AcDbEntity
  8
1
  6
CONTINUOUS
 62
           7
100
AcDbLine
 10
-260.32063019925
 20
-1377.912360034584
 11
-259.020630199249
 21
-1377.912360034584
  0
LINE
  5
16A
100
AcDbEntity
  8
1
  6
CONTINUOUS
 62
           7
100
AcDbLine
 10
-260.32063019925
 20
-1373.912360034584
 11
-259.020630199249
 21
-1373.912360034584
  0
LINE
  5
169
100
AcDbEntity
  8
1
  6
CONTINUOUS
 62
           7
100
AcDbLine
 10
-259.020630199249
 20
-1372.912360034584
 11
-258.32063019925
 21
-1372.912360034584
  0
LINE
  5
168
100
AcDbEntity
  8
1
  6
CONTINUOUS
 62
           7
100
AcDbLine
 10
-258.32063019925
 20
-1378.912360034584
 11
-259.020630199249
 21
-1378.912360034584
  0
LINE
  5
167
100
AcDbEntity
  8
1
  6
CONTINUOUS
 62
           7
100
AcDbLine
 10
-258.020630199251
 20
-1378.612360034584
 11
-258.020630199251
 21
-1373.212360034584
  0
LINE
  5
166
100
AcDbEntity
  8
1
  6
CONTINUOUS
 62
           7
100
AcDbLine
 10
-259.520630199249
 20
-1388.912360034584
 11
-259.520630199249
 21
-1377.912360034584
  0
LINE
  5
165
100
AcDbEntity
  8
1
  6
DOT_CENTER
 62
           1
100
AcDbLine
 10
-271.285752172788
 20
-1383.412360034584
 11
-253.3829185987
 21
-1383.412360034584
  0
LINE
  5
164
100
AcDbEntity
  8
1
  6
CONTINUOUS
 62
           7
100
AcDbLine
 10
-267.020630199258
 20
-1354.914490998029
 11
-267.020630199248
 21
-1343.412360034584
  0
LINE
  5
163
100
AcDbEntity
  8
1
  6
CONTINUOUS
 62
           7
100
AcDbLine
 10
-264.22063019925
 20
-1344.562360034583
 11
-264.220630199253
 21
-1344.912360034584
  0
LINE
  5
162
100
AcDbEntity
  8
1
  6
CONTINUOUS
 62
           7
100
AcDbLine
 10
-267.020630199249
 20
-1342.762360034584
 11
-267.020630199247
 21
-1354.914490998029
  0
LINE
  5
161
100
AcDbEntity
  8
1
  6
CONTINUOUS
 62
           7
100
AcDbLine
 10
-264.220630199253
 20
-1353.912360034584
 11
-264.220630199253
 21
-1354.262360034583
  0
LINE
  5
160
100
AcDbEntity
  8
1
  6
CONTINUOUS
 62
           7
100
AcDbLine
 10
-263.620630199252
 20
-1341.912360034583
 11
-263.620630199252
 21
-1354.91449099803
  0
LINE
  5
15F
100
AcDbEntity
  8
1
  6
CONTINUOUS
 62
           7
100
AcDbLine
 10
-264.220630199253
 20
-1341.912360034583
 11
-263.620630199252
 21
-1341.912360034583
  0
LINE
  5
15E
100
AcDbEntity
  8
1
  6
CONTINUOUS
 62
           7
100
AcDbLine
 10
-264.220630199253
 20
-1354.91449099803
 11
-264.220630199253
 21
-1341.912360034583
  0
LINE
  5
15D
100
AcDbEntity
  8
1
  6
CONTINUOUS
 62
           7
100
AcDbLine
 10
-264.243609262179
 20
-1344.912360034584
 11
-264.220630199253
 21
-1344.912360034584
  0
LINE
  5
15C
100
AcDbEntity
  8
1
  6
CONTINUOUS
 62
           7
100
AcDbLine
 10
-260.92063019925
 20
-1371.412360034585
 11
-260.92063019925
 21
-1395.412360034585
  0
LINE
  5
15B
100
AcDbEntity
  8
1
  6
CONTINUOUS
 62
           7
100
AcDbLine
 10
-261.720630199254
 20
-1358.373206281166
 11
-261.720630199253
 21
-1369.012360034588
  0
LINE
  5
15A
100
AcDbEntity
  8
1
  6
CONTINUOUS
 62
           7
100
AcDbLine
 10
-261.720630199254
 20
-1342.548146472211
 11
-261.720630199254
 21
-1355.451513788002
  0
LINE
  5
159
100
AcDbEntity
  8
1
  6
CONTINUOUS
 62
           7
100
AcDbLine
 10
-261.720630199254
 20
-1355.451513788002
 11
-261.720630199254
 21
-1358.373206281166
  0
LINE
  5
158
100
AcDbEntity
  8
1
  6
CONTINUOUS
 62
           7
100
AcDbLine
 10
-263.620630199254
 20
-1354.844407006816
 11
-263.620630199254
 21
-1343.155253253397
  0
LINE
  5
157
100
AcDbEntity
  8
1
  6
CONTINUOUS
 62
           7
100
AcDbLine
 10
-261.720630199254
 20
-1339.912360034584
 11
-261.720630199254
 21
-1342.548146472211
  0
LINE
  5
156
100
AcDbEntity
  8
1
  6
CONTINUOUS
 62
           7
100
AcDbLine
 10
-263.220630199254
 20
-1354.912360034584
 11
-263.220630199254
 21
-1339.912360034584
  0
LINE
  5
155
100
AcDbEntity
  8
1
  6
CONTINUOUS
 62
           7
100
AcDbLine
 10
-263.220630199254
 20
-1339.912360034584
 11
-261.720630199254
 21
-1339.912360034584
  0
LINE
  5
154
100
AcDbEntity
  8
1
  6
CONTINUOUS
 62
           7
100
AcDbLine
 10
-264.120630199249
 20
-1425.912360034584
 11
-264.120630199251
 21
-1409.912360034583
  0
LINE
  5
153
100
AcDbEntity
  8
1
  6
CONTINUOUS
 62
           7
100
AcDbLine
 10
-260.920630199249
 20
-1395.462360034584
 11
-260.920630199249
 21
-1395.412360034584
  0
LINE
  5
152
100
AcDbEntity
  8
1
  6
CONTINUOUS
 62
           7
100
AcDbLine
 10
-259.520630199249
 20
-1425.912360034584
 11
-259.520630199249
 21
-1395.462360034584
  0
LINE
  5
151
100
AcDbEntity
  8
1
  6
CONTINUOUS
 62
           7
100
AcDbLine
 10
-259.520630199249
 20
-1371.362360034584
 11
-259.520630199249
 21
-1323.912360034584
  0
LINE
  5
150
100
AcDbEntity
  8
1
  6
CONTINUOUS
 62
           7
100
AcDbLine
 10
-267.520630199249
 20
-1425.912360034584
 11
-259.520630199249
 21
-1425.912360034584
  0
LINE
  5
14F
100
AcDbEntity
  8
1
  6
CONTINUOUS
 62
           7
100
AcDbLine
 10
-267.520630199249
 20
-1409.912360034584
 11
-267.520630199249
 21
-1425.912360034584
  0
LINE
  5
14E
100
AcDbEntity
  8
1
  6
CONTINUOUS
 62
           7
100
AcDbLine
 10
-261.520630199249
 20
-1323.912360034584
 11
-261.520630199249
 21
-1368.412360034584
  0
LINE
  5
14D
100
AcDbEntity
  8
1
  6
CONTINUOUS
 62
           7
100
AcDbLine
 10
-259.520630199249
 20
-1323.912360034584
 11
-261.520630199249
 21
-1323.912360034584
  0
LINE
  5
14C
100
AcDbEntity
  8
1
  6
CONTINUOUS
 62
           7
100
AcDbLine
 10
-260.920630199249
 20
-1371.362360034584
 11
-259.520630199249
 21
-1371.362360034584
  0
LINE
  5
14B
100
AcDbEntity
  8
1
  6
CONTINUOUS
 62
           7
100
AcDbLine
 10
-260.920630199249
 20
-1371.412360034584
 11
-260.920630199249
 21
-1371.362360034584
  0
LINE
  5
14A
100
AcDbEntity
  8
1
  6
CONTINUOUS
 62
           7
100
AcDbLine
 10
-259.520630199249
 20
-1395.462360034584
 11
-260.920630199249
 21
-1395.462360034584
  0
LINE
  5
149
100
AcDbEntity
  8
1
  6
CONTINUOUS
 62
           7
100
AcDbLine
 10
-262.820630199249
 20
-1369.412360034584
 11
-262.820630199249
 21
-1425.912360034584
  0
LINE
  5
148
100
AcDbEntity
  8
1
  6
CONTINUOUS
 62
           7
100
AcDbLine
 10
-262.520630199249
 20
-1369.412360034584
 11
-262.820630199249
 21
-1369.412360034584
  0
LINE
  5
147
100
AcDbEntity
  8
1
  6
CONTINUOUS
 62
           7
100
AcDbLine
 10
-267.020630199249
 20
-1324.912360034584
 11
-267.020630199249
 21
-1354.912360034584
  0
LINE
  5
146
100
AcDbEntity
  8
1
  6
CONTINUOUS
 62
           7
100
AcDbLine
 10
-262.820630199249
 20
-1354.912360034584
 11
-262.820630199249
 21
-1409.912360034584
  0
LINE
  5
145
100
AcDbEntity
  8
1
  6
CONTINUOUS
 62
           7
100
AcDbLine
 10
-262.820630199249
 20
-1409.912360034584
 11
-269.020630199249
 21
-1409.912360034584
  0
LINE
  5
144
100
AcDbEntity
  8
1
  6
CONTINUOUS
 62
           7
100
AcDbLine
 10
-269.020630199249
 20
-1409.912360034584
 11
-269.02063019925
 21
-1324.912360034584
  0
LINE
  5
143
100
AcDbEntity
  8
1
  6
CONTINUOUS
 62
           7
100
AcDbLine
 10
-269.020630199249
 20
-1354.912360034584
 11
-262.820630199249
 21
-1354.912360034584
  0
LINE
  5
142
100
AcDbEntity
  8
1
  6
CONTINUOUS
 62
           7
100
AcDbLine
 10
-264.020630199249
 20
-1341.912360034583
 11
-264.020630199249
 21
-1324.912360034584
  0
LINE
  5
141
100
AcDbEntity
  8
1
  6
CONTINUOUS
 62
           7
100
AcDbLine
 10
-264.020630199249
 20
-1324.912360034584
 11
-269.02063019925
 21
-1324.912360034584
  0
INSERT
  5
33
100
AcDbEntity
  8
0
100
AcDbBlockReference
  2
M04_____MI__5
 10
0.0
 20
0.0
  0
INSERT
  5
34
100
AcDbEntity
  8
0
100
AcDbBlockReference
  2
M04_____MI__6
 10
0.0
 20
0.0
  0
ENDBLK
  5
17D
100
AcDbEntity
  8
0
100
AcDbBlockEnd
  0
BLOCK
  5
36
100
AcDbEntity
  8
0
100
AcDbBlockBegin
  2
X_A______8
 70
           0
 10
0.0
 20
0.0
 30
0.0
  3
X_A______8
  1

  0
ARC
  5
194
100
AcDbEntity
  8
1
  6
CONTINUOUS
 62
           7
100
AcDbCircle
 10
-260.220630199258
 20
-1434.863126746552
 40
5.000000000002
100
AcDbArc
 50
145.246425268485
 51
-179.999999999979
  0
ARC
  5
193
100
AcDbEntity
  8
1
  6
CONTINUOUS
 62
           7
100
AcDbCircle
 10
-260.720630199262
 20
-1434.706943073905
 40
3.0
100
AcDbArc
 50
145.304846468764
 51
-179.999999999943
  0
ARC
  5
192
100
AcDbEntity
  8
1
  6
CONTINUOUS
 62
           7
100
AcDbCircle
 10
-260.720630199254
 20
-1453.412360034584
 40
1.5
100
AcDbArc
 50
0.0
 51
90.0
  0
ARC
  5
191
100
AcDbEntity
  8
1
  6
CONTINUOUS
 62
           7
100
AcDbCircle
 10
-266.220630199254
 20
-1451.912360034584
 40
1.5
100
AcDbArc
 50
180.0
 51
-90.0
  0
ARC
  5
190
100
AcDbEntity
  8
1
  6
CONTINUOUS
 62
           7
100
AcDbCircle
 10
-266.220630199254
 20
-1437.380924751391
 40
1.499999999999
100
AcDbArc
 50
145.304846468767
 51
180.0
  0
ARC
  5
18F
100
AcDbEntity
  8
1
  6
CONTINUOUS
 62
           7
100
AcDbCircle
 10
-263.220630199254
 20
-1430.412360034584
 40
1.499999999999
100
AcDbArc
 50
-34.695153531234
 51
0.0
  0
ARC
  5
18E
100
AcDbEntity
  8
1
  6
CONTINUOUS
 62
           7
100
AcDbCircle
 10
-295.220188507436
 20
-1439.421768187056
 40
29.999999999985
100
AcDbArc
 50
-23.558574976002
 51
0.310911802332
  0
ARC
  5
18D
100
AcDbEntity
  8
1
  6
CONTINUOUS
 62
           7
100
AcDbCircle
 10
-293.720188507436
 20
-1439.421768187056
 40
29.999999999985
100
AcDbArc
 50
-23.558574976002
 51
0.310911802332
  0
LINE
  5
18C
100
AcDbEntity
  8
1
  6
CONTINUOUS
 62
           7
100
AcDbLine
 10
-263.220630199254
 20
-1430.412360034584
 11
-263.220630199254
 21
-1425.912360034584
  0
LINE
  5
18B
100
AcDbEntity
  8
1
  6
CONTINUOUS
 62
           7
100
AcDbLine
 10
-261.987341911789
 20
-1431.266175002829
 11
-263.187206774193
 21
-1432.999313137414
  0
LINE
  5
18A
100
AcDbEntity
  8
1
  6
CONTINUOUS
 62
           7
100
AcDbLine
 10
-263.720630199262
 20
-1434.706943073908
 11
-263.720630199258
 21
-1439.584560427165
  0
LINE
  5
189
100
AcDbEntity
  8
1
  6
CONTINUOUS
 62
           7
100
AcDbLine
 10
-265.220630199258
 20
-1434.863126746554
 11
-265.220630199258
 21
-1439.584560426989
  0
LINE
  5
188
100
AcDbEntity
  8
1
  6
CONTINUOUS
 62
           7
100
AcDbLine
 10
-261.720630199254
 20
-1425.912360034584
 11
-261.720630199254
 21
-1430.412360034584
  0
LINE
  5
187
100
AcDbEntity
  8
1
  6
DOT_CENTER
 62
           4
100
AcDbLine
 10
-261.720630199254
 20
-1512.912360034584
 11
-258.220630199254
 21
-1512.912360034584
  0
LINE
  5
186
100
AcDbEntity
  8
1
  6
DOT_CENTER
 62
           4
100
AcDbLine
 10
-261.720630199254
 20
-1488.912360034584
 11
-258.220630199254
 21
-1488.912360034584
  0
LINE
  5
185
100
AcDbEntity
  8
1
  6
CONTINUOUS
 62
           7
100
AcDbLine
 10
-267.453918486719
 20
-1436.527109783146
 11
-263.220630199254
 21
-1430.412360034584
  0
LINE
  5
184
100
AcDbEntity
  8
1
  6
CONTINUOUS
 62
           7
100
AcDbLine
 10
-266.220630199254
 20
-1451.412360034584
 11
-266.220630199254
 21
-1451.912360034584
  0
LINE
  5
183
100
AcDbEntity
  8
1
  6
CONTINUOUS
 62
           7
100
AcDbLine
 10
-266.220630199254
 20
-1451.912360034584
 11
-260.720630199254
 21
-1451.912360034584
  0
LINE
  5
182
100
AcDbEntity
  8
1
  6
CONTINUOUS
 62
           7
100
AcDbLine
 10
-259.220630199254
 20
-1453.412360034584
 11
-259.220630199254
 21
-1521.912360034584
  0
LINE
  5
181
100
AcDbEntity
  8
1
  6
CONTINUOUS
 62
           7
100
AcDbLine
 10
-259.220630199254
 20
-1521.912360034584
 11
-260.720630199254
 21
-1521.912360034584
  0
LINE
  5
180
100
AcDbEntity
  8
1
  6
CONTINUOUS
 62
           7
100
AcDbLine
 10
-260.720630199254
 20
-1521.912360034584
 11
-260.720630199254
 21
-1453.412360034584
  0
LINE
  5
17F
100
AcDbEntity
  8
1
  6
CONTINUOUS
 62
           7
100
AcDbLine
 10
-260.720630199254
 20
-1453.412360034584
 11
-266.220630199254
 21
-1453.412360034584
  0
LINE
  5
17E
100
AcDbEntity
  8
1
  6
CONTINUOUS
 62
           7
100
AcDbLine
 10
-267.720630199254
 20
-1451.912360034584
 11
-267.720630199254
 21
-1437.380924751391
  0
ENDBLK
  5
195
100
AcDbEntity
  8
0
100
AcDbBlockEnd
  0
BLOCK
  5
38
100
AcDbEntity
  8
0
100
AcDbBlockBegin
  2
A__9
 70
           0
 10
0.0
 20
0.0
 30
0.0
  3
A__9
  1

  0
INSERT
  5
39
100
AcDbEntity
  8
0
100
AcDbBlockReference
  2
X_A______8
 10
0.0
 20
0.0
  0
ENDBLK
  5
196
100
AcDbEntity
  8
0
100
AcDbBlockEnd
  0
BLOCK
  5
3B
100
AcDbEntity
  8
0
100
AcDbBlockBegin
  2
M04_____MI__10
 70
           0
 10
0.0
 20
0.0
 30
0.0
  3
M04_____MI__10
  1

  0
ARC
  5
1A9
100
AcDbEntity
  8
1
  6
CENTER_DASH_DASH
 62
           2
100
AcDbCircle
 10
-207.173963532581
 20
-1399.999026701251
 40
6.453915263018
100
AcDbArc
 50
-45.627759168967
 51
0.769421858332
  0
ARC
  5
1A8
100
AcDbEntity
  8
1
  6
CENTER_DASH_DASH
 62
           2
100
AcDbCircle
 10
-207.173963532581
 20
-1399.825693367918
 40
6.453915263019
100
AcDbArc
 50
-0.769421858324
 51
45.627759168973
  0
LINE
  5
1A7
100
AcDbEntity
  8
1
  6
CENTER_DASH_DASH
 62
           2
100
AcDbLine
 10
-203.220630199247
 20
-1395.358435119909
 11
-203.220630199247
 21
-1404.46628494926
  0
LINE
  5
1A6
100
AcDbEntity
  8
1
  6
CENTER_DASH_DASH
 62
           4
100
AcDbLine
 10
-201.059515685264
 20
-1397.951750828125
 11
-202.731123375198
 21
-1398.667380153891
  0
LINE
  5
1A5
100
AcDbEntity
  8
1
  6
CENTER_DASH_DASH
 62
           2
100
AcDbLine
 10
-203.220630199247
 20
-1404.46628494926
 11
-202.660630199248
 21
-1404.612360034584
  0
LINE
  5
1A4
100
AcDbEntity
  8
1
  6
CENTER_DASH_DASH
 62
           2
100
AcDbLine
 10
-202.660630199248
 20
-1395.212360034584
 11
-202.660630199248
 21
-1404.612360034584
  0
LINE
  5
1A3
100
AcDbEntity
  8
1
  6
CENTER_DASH_DASH
 62
           2
100
AcDbLine
 10
-202.660630199248
 20
-1395.212360034584
 11
-203.220630199247
 21
-1395.358435119909
  0
LINE
  5
1A2
100
AcDbEntity
  8
1
  6
CENTER_DASH_DASH
 62
           4
100
AcDbLine
 10
-203.220630199247
 20
-1399.912360034585
 11
-202.731123375198
 21
-1401.157339915279
  0
LINE
  5
1A1
100
AcDbEntity
  8
1
  6
CENTER_DASH_DASH
 62
           4
100
AcDbLine
 10
-202.731123375198
 20
-1401.157339915279
 11
-201.059515685264
 21
-1401.872969241043
  0
LINE
  5
1A0
100
AcDbEntity
  8
1
  6
CENTER_DASH_DASH
 62
           4
100
AcDbLine
 10
-202.731123375198
 20
-1398.667380153891
 11
-203.220630199247
 21
-1399.912360034585
  0
LINE
  5
19F
100
AcDbEntity
  8
1
  6
CENTER_DASH_DASH
 62
           2
100
AcDbLine
 10
-208.820630199248
 20
-1401.912360034584
 11
-208.820630199247
 21
-1397.912360034584
  0
LINE
  5
19E
100
AcDbEntity
  8
1
  6
CENTER_DASH_DASH
 62
           2
100
AcDbLine
 10
-208.820630199247
 20
-1397.912360034584
 11
-209.220630199247
 21
-1398.312360034584
  0
LINE
  5
19D
100
AcDbEntity
  8
1
  6
CENTER_DASH_DASH
 62
           2
100
AcDbLine
 10
-208.820630199248
 20
-1401.912360034584
 11
-209.220630199247
 21
-1401.512360034584
  0
LINE
  5
19C
100
AcDbEntity
  8
1
  6
CENTER_DASH_DASH
 62
           2
100
AcDbLine
 10
-209.220630199247
 20
-1401.512360034584
 11
-209.220630199247
 21
-1398.312360034584
  0
LINE
  5
19B
100
AcDbEntity
  8
1
  6
CENTER_DASH_DASH
 62
           2
100
AcDbLine
 10
-203.220630199247
 20
-1401.512360034584
 11
-209.220630199247
 21
-1401.512360034584
  0
LINE
  5
19A
100
AcDbEntity
  8
1
  6
CENTER_DASH_DASH
 62
           2
100
AcDbLine
 10
-209.220630199247
 20
-1398.312360034584
 11
-203.220630199247
 21
-1398.312360034584
  0
LINE
  5
199
100
AcDbEntity
  8
1
  6
CENTER_DASH_DASH
 62
           2
100
AcDbLine
 10
-203.220630199247
 20
-1401.912360034584
 11
-208.820630199248
 21
-1401.912360034584
  0
LINE
  5
198
100
AcDbEntity
  8
1
  6
CENTER_DASH_DASH
 62
           2
100
AcDbLine
 10
-208.820630199247
 20
-1397.912360034584
 11
-203.220630199247
 21
-1397.912360034584
  0
LINE
  5
197
100
AcDbEntity
  8
1
  6
DOT_CENTER
 62
           1
100
AcDbLine
 10
-198.550551533994
 20
-1399.912360034585
 11
-210.819126201919
 21
-1399.912360034584
  0
ENDBLK
  5
1AA
100
AcDbEntity
  8
0
100
AcDbBlockEnd
  0
BLOCK
  5
3D
100
AcDbEntity
  8
0
100
AcDbBlockBegin
  2
M04_____MI__11
 70
           0
 10
0.0
 20
0.0
 30
0.0
  3
M04_____MI__11
  1

  0
ARC
  5
1BD
100
AcDbEntity
  8
1
  6
CENTER_DASH_DASH
 62
           2
100
AcDbCircle
 10
-207.173963532581
 20
-1334.825693367917
 40
6.453915263019
100
AcDbArc
 50
-0.769421858322
 51
45.627759168973
  0
ARC
  5
1BC
100
AcDbEntity
  8
1
  6
CENTER_DASH_DASH
 62
           2
100
AcDbCircle
 10
-207.173963532581
 20
-1334.99902670125
 40
6.453915263018
100
AcDbArc
 50
-45.627759168967
 51
0.769421858332
  0
LINE
  5
1BB
100
AcDbEntity
  8
1
  6
DOT_CENTER
 62
           1
100
AcDbLine
 10
-198.550551533994
 20
-1334.912360034584
 11
-210.819126201919
 21
-1334.912360034583
  0
LINE
  5
1BA
100
AcDbEntity
  8
1
  6
CENTER_DASH_DASH
 62
           2
100
AcDbLine
 10
-208.820630199247
 20
-1332.912360034583
 11
-203.220630199247
 21
-1332.912360034583
  0
LINE
  5
1B9
100
AcDbEntity
  8
1
  6
CENTER_DASH_DASH
 62
           2
100
AcDbLine
 10
-203.220630199247
 20
-1336.912360034583
 11
-208.820630199248
 21
-1336.912360034583
  0
LINE
  5
1B8
100
AcDbEntity
  8
1
  6
CENTER_DASH_DASH
 62
           2
100
AcDbLine
 10
-209.220630199247
 20
-1333.312360034583
 11
-203.220630199247
 21
-1333.312360034583
  0
LINE
  5
1B7
100
AcDbEntity
  8
1
  6
CENTER_DASH_DASH
 62
           2
100
AcDbLine
 10
-203.220630199247
 20
-1336.512360034583
 11
-209.220630199247
 21
-1336.512360034583
  0
LINE
  5
1B6
100
AcDbEntity
  8
1
  6
CENTER_DASH_DASH
 62
           2
100
AcDbLine
 10
-209.220630199247
 20
-1336.512360034583
 11
-209.220630199247
 21
-1333.312360034583
  0
LINE
  5
1B5
100
AcDbEntity
  8
1
  6
CENTER_DASH_DASH
 62
           2
100
AcDbLine
 10
-208.820630199248
 20
-1336.912360034583
 11
-209.220630199247
 21
-1336.512360034583
  0
LINE
  5
1B4
100
AcDbEntity
  8
1
  6
CENTER_DASH_DASH
 62
           2
100
AcDbLine
 10
-208.820630199247
 20
-1332.912360034583
 11
-209.220630199247
 21
-1333.312360034583
  0
LINE
  5
1B3
100
AcDbEntity
  8
1
  6
CENTER_DASH_DASH
 62
           2
100
AcDbLine
 10
-208.820630199248
 20
-1336.912360034583
 11
-208.820630199247
 21
-1332.912360034583
  0
LINE
  5
1B2
100
AcDbEntity
  8
1
  6
CENTER_DASH_DASH
 62
           4
100
AcDbLine
 10
-202.731123375198
 20
-1333.667380153889
 11
-203.220630199247
 21
-1334.912360034583
  0
LINE
  5
1B1
100
AcDbEntity
  8
1
  6
CENTER_DASH_DASH
 62
           4
100
AcDbLine
 10
-202.731123375198
 20
-1336.157339915278
 11
-201.059515685264
 21
-1336.872969241042
  0
LINE
  5
1B0
100
AcDbEntity
  8
1
  6
CENTER_DASH_DASH
 62
           4
100
AcDbLine
 10
-203.220630199247
 20
-1334.912360034583
 11
-202.731123375198
 21
-1336.157339915278
  0
LINE
  5
1AF
100
AcDbEntity
  8
1
  6
CENTER_DASH_DASH
 62
           2
100
AcDbLine
 10
-202.660630199248
 20
-1330.212360034583
 11
-203.220630199247
 21
-1330.358435119908
  0
LINE
  5
1AE
100
AcDbEntity
  8
1
  6
CENTER_DASH_DASH
 62
           2
100
AcDbLine
 10
-202.660630199248
 20
-1330.212360034583
 11
-202.660630199248
 21
-1339.612360034583
  0
LINE
  5
1AD
100
AcDbEntity
  8
1
  6
CENTER_DASH_DASH
 62
           2
100
AcDbLine
 10
-203.220630199247
 20
-1339.466284949259
 11
-202.660630199248
 21
-1339.612360034583
  0
LINE
  5
1AC
100
AcDbEntity
  8
1
  6
CENTER_DASH_DASH
 62
           4
100
AcDbLine
 10
-201.059515685264
 20
-1332.951750828124
 11
-202.731123375198
 21
-1333.667380153889
  0
LINE
  5
1AB
100
AcDbEntity
  8
1
  6
CENTER_DASH_DASH
 62
           2
100
AcDbLine
 10
-203.220630199247
 20
-1330.358435119908
 11
-203.220630199247
 21
-1339.466284949259
  0
ENDBLK
  5
1BE
100
AcDbEntity
  8
0
100
AcDbBlockEnd
  0
BLOCK
  5
3F
100
AcDbEntity
  8
0
100
AcDbBlockBegin
  2
_X___X__12
 70
           0
 10
0.0
 20
0.0
 30
0.0
  3
_X___X__12
  1

  0
ARC
  5
1FD
100
AcDbEntity
  8
1
  6
CONTINUOUS
 62
           7
100
AcDbCircle
 10
-194.520630199248
 20
-1363.612360034584
 40
0.3
100
AcDbArc
 50
-90.0
 51
0.0
  0
ARC
  5
1FC
100
AcDbEntity
  8
1
  6
CONTINUOUS
 62
           7
100
AcDbCircle
 10
-194.520630199248
 20
-1358.212360034584
 40
0.299999999999
100
AcDbArc
 50
0.0
 51
90.0
  0
ARC
  5
1FB
100
AcDbEntity
  8
1
  6
CONTINUOUS
 62
           7
100
AcDbCircle
 10
-194.520630199248
 20
-1373.212360034584
 40
0.299999999999
100
AcDbArc
 50
0.0
 51
90.0
  0
ARC
  5
1FA
100
AcDbEntity
  8
1
  6
CONTINUOUS
 62
           7
100
AcDbCircle
 10
-194.520630199248
 20
-1378.612360034584
 40
0.3
100
AcDbArc
 50
-90.0
 51
0.0
  0
ARC
  5
1F9
100
AcDbEntity
  8
1
  6
CONTINUOUS
 62
           7
100
AcDbCircle
 10
-198.720630199247
 20
-1353.412360034584
 40
1.0
100
AcDbArc
 50
-90.0
 51
0.0
  0
ARC
  5
1F8
100
AcDbEntity
  8
1
  6
CONTINUOUS
 62
           7
100
AcDbCircle
 10
-200.77063019925
 20
-1354.262360034583
 40
0.35
100
AcDbArc
 50
-155.429168273622
 51
-155.066146889549
  0
LINE
  5
1F7
100
AcDbEntity
  8
1
  6
CONTINUOUS
 62
           7
100
AcDbLine
 10
-195.720630199247
 20
-1373.912360034584
 11
-195.720630199247
 21
-1362.912360034584
  0
LINE
  5
1F6
100
AcDbEntity
  8
1
  6
CONTINUOUS
 62
           7
100
AcDbLine
 10
-194.220630199249
 20
-1363.612360034584
 11
-194.220630199249
 21
-1358.212360034584
  0
LINE
  5
1F5
100
AcDbEntity
  8
1
  6
CONTINUOUS
 62
           7
100
AcDbLine
 10
-194.520630199248
 20
-1363.912360034584
 11
-195.220630199247
 21
-1363.912360034584
  0
LINE
  5
1F4
100
AcDbEntity
  8
1
  6
CONTINUOUS
 62
           7
100
AcDbLine
 10
-195.220630199247
 20
-1357.912360034584
 11
-194.520630199248
 21
-1357.912360034584
  0
LINE
  5
1F3
100
AcDbEntity
  8
1
  6
CONTINUOUS
 62
           7
100
AcDbLine
 10
-196.520630199248
 20
-1358.912360034584
 11
-195.220630199247
 21
-1358.912360034584
  0
LINE
  5
1F2
100
AcDbEntity
  8
1
  6
CONTINUOUS
 62
           7
100
AcDbLine
 10
-196.520630199248
 20
-1362.912360034584
 11
-195.220630199247
 21
-1362.912360034584
  0
LINE
  5
1F1
100
AcDbEntity
  8
1
  6
CONTINUOUS
 62
           7
100
AcDbLine
 10
-195.220630199247
 20
-1363.912360034584
 11
-195.220630199247
 21
-1357.912360034584
  0
LINE
  5
1F0
100
AcDbEntity
  8
1
  6
CONTINUOUS
 62
           7
100
AcDbLine
 10
-195.220630199247
 20
-1378.912360034584
 11
-195.220630199247
 21
-1372.912360034584
  0
LINE
  5
1EF
100
AcDbEntity
  8
1
  6
CONTINUOUS
 62
           7
100
AcDbLine
 10
-196.520630199248
 20
-1377.912360034584
 11
-195.220630199247
 21
-1377.912360034584
  0
LINE
  5
1EE
100
AcDbEntity
  8
1
  6
CONTINUOUS
 62
           7
100
AcDbLine
 10
-196.520630199248
 20
-1373.912360034584
 11
-195.220630199247
 21
-1373.912360034584
  0
LINE
  5
1ED
100
AcDbEntity
  8
1
  6
CONTINUOUS
 62
           7
100
AcDbLine
 10
-195.220630199247
 20
-1372.912360034584
 11
-194.520630199248
 21
-1372.912360034584
  0
LINE
  5
1EC
100
AcDbEntity
  8
1
  6
CONTINUOUS
 62
           7
100
AcDbLine
 10
-194.520630199248
 20
-1378.912360034584
 11
-195.220630199247
 21
-1378.912360034584
  0
LINE
  5
1EB
100
AcDbEntity
  8
1
  6
CONTINUOUS
 62
           7
100
AcDbLine
 10
-194.220630199249
 20
-1378.612360034584
 11
-194.220630199249
 21
-1373.212360034584
  0
LINE
  5
1EA
100
AcDbEntity
  8
1
  6
CONTINUOUS
 62
           7
100
AcDbLine
 10
-196.520630199248
 20
-1380.462360034584
 11
-196.520630199248
 21
-1356.362360034584
  0
LINE
  5
1E9
100
AcDbEntity
  8
1
  6
CONTINUOUS
 62
           7
100
AcDbLine
 10
-195.720630199247
 20
-1358.912360034584
 11
-195.720630199247
 21
-1356.362360034584
  0
LINE
  5
1E8
100
AcDbEntity
  8
1
  6
CONTINUOUS
 62
           7
100
AcDbLine
 10
-195.720630199247
 20
-1377.912360034584
 11
-195.720630199247
 21
-1380.462360034584
  0
LINE
  5
1E7
100
AcDbEntity
  8
1
  6
DOT_CENTER
 62
           1
100
AcDbLine
 10
-207.485752172786
 20
-1368.412360034584
 11
-188.220630199257
 21
-1368.412360034584
  0
LINE
  5
1E6
100
AcDbEntity
  8
1
  6
CONTINUOUS
 62
           7
100
AcDbLine
 10
-200.420630199251
 20
-1341.912360034583
 11
-199.82063019925
 21
-1341.912360034583
  0
LINE
  5
1E5
100
AcDbEntity
  8
1
  6
CONTINUOUS
 62
           7
100
AcDbLine
 10
-199.82063019925
 20
-1341.912360034583
 11
-199.820630199251
 21
-1354.414490998029
  0
LINE
  5
1E4
100
AcDbEntity
  8
1
  6
CONTINUOUS
 62
           7
100
AcDbLine
 10
-199.420630199252
 20
-1324.912360034584
 11
-197.920630199252
 21
-1324.912360034584
  0
LINE
  5
1E3
100
AcDbEntity
  8
1
  6
CONTINUOUS
 62
           7
100
AcDbLine
 10
-199.420630199252
 20
-1354.412360034584
 11
-199.420630199252
 21
-1324.912360034584
  0
LINE
  5
1E2
100
AcDbEntity
  8
1
  6
CONTINUOUS
 62
           7
100
AcDbLine
 10
-197.920630199252
 20
-1324.912360034584
 11
-197.920630199252
 21
-1327.548146472211
  0
LINE
  5
1E1
100
AcDbEntity
  8
1
  6
CONTINUOUS
 62
           7
100
AcDbLine
 10
-199.820630199251
 20
-1354.414490998029
 11
-199.820630199251
 21
-1343.980313062352
  0
LINE
  5
1E0
100
AcDbEntity
  8
1
  6
CONTINUOUS
 62
           7
100
AcDbLine
 10
-197.920630199252
 20
-1340.451513788002
 11
-197.920630199252
 21
-1343.373206281166
  0
LINE
  5
1DF
100
AcDbEntity
  8
1
  6
CONTINUOUS
 62
           7
100
AcDbLine
 10
-197.920630199252
 20
-1327.548146472211
 11
-197.920630199252
 21
-1340.451513788002
  0
LINE
  5
1DE
100
AcDbEntity
  8
1
  6
CONTINUOUS
 62
           7
100
AcDbLine
 10
-197.920630199252
 20
-1343.373206281166
 11
-197.92063019925
 21
-1354.012360034588
  0
LINE
  5
1DD
100
AcDbEntity
  8
1
  6
CONTINUOUS
 62
           7
100
AcDbLine
 10
-197.120630199248
 20
-1356.412360034585
 11
-197.120630199248
 21
-1380.412360034585
  0
LINE
  5
1DC
100
AcDbEntity
  8
1
  6
CONTINUOUS
 62
           7
100
AcDbLine
 10
-196.720630199247
 20
-1356.412360034584
 11
-196.720630199247
 21
-1356.362360034584
  0
LINE
  5
1DB
100
AcDbEntity
  8
1
  6
CONTINUOUS
 62
           7
100
AcDbLine
 10
-196.320630199247
 20
-1356.412360034585
 11
-196.320630199247
 21
-1356.362360034584
  0
LINE
  5
1DA
100
AcDbEntity
  8
1
  6
CONTINUOUS
 62
           7
100
AcDbLine
 10
-199.020630199247
 20
-1354.412360034584
 11
-199.020630199247
 21
-1410.912360034584
  0
LINE
  5
1D9
100
AcDbEntity
  8
1
  6
CONTINUOUS
 62
           7
100
AcDbLine
 10
-195.720630199247
 20
-1380.462360034584
 11
-197.120630199247
 21
-1380.462360034584
  0
LINE
  5
1D8
100
AcDbEntity
  8
1
  6
CONTINUOUS
 62
           7
100
AcDbLine
 10
-197.120630199247
 20
-1356.412360034584
 11
-197.120630199247
 21
-1356.362360034584
  0
LINE
  5
1D7
100
AcDbEntity
  8
1
  6
CONTINUOUS
 62
           7
100
AcDbLine
 10
-197.120630199247
 20
-1356.362360034584
 11
-195.720630199247
 21
-1356.362360034584
  0
LINE
  5
1D6
100
AcDbEntity
  8
1
  6
CONTINUOUS
 62
           7
100
AcDbLine
 10
-195.720630199247
 20
-1308.912360034584
 11
-197.720630199247
 21
-1308.912360034584
  0
LINE
  5
1D5
100
AcDbEntity
  8
1
  6
CONTINUOUS
 62
           7
100
AcDbLine
 10
-197.720630199247
 20
-1308.912360034584
 11
-197.720630199247
 21
-1353.412360034584
  0
LINE
  5
1D4
100
AcDbEntity
  8
1
  6
CONTINUOUS
 62
           7
100
AcDbLine
 10
-198.720630199247
 20
-1354.412360034584
 11
-203.720630199247
 21
-1354.412360034584
  0
LINE
  5
1D3
100
AcDbEntity
  8
1
  6
CONTINUOUS
 62
           7
100
AcDbLine
 10
-203.720630199247
 20
-1409.912360034584
 11
-203.720630199247
 21
-1410.912360034584
  0
LINE
  5
1D2
100
AcDbEntity
  8
1
  6
CONTINUOUS
 62
           7
100
AcDbLine
 10
-203.720630199247
 20
-1410.912360034584
 11
-195.720630199247
 21
-1410.912360034584
  0
LINE
  5
1D1
100
AcDbEntity
  8
1
  6
CONTINUOUS
 62
           7
100
AcDbLine
 10
-195.720630199247
 20
-1356.412360034585
 11
-195.720630199247
 21
-1308.912360034584
  0
LINE
  5
1D0
100
AcDbEntity
  8
1
  6
CONTINUOUS
 62
           7
100
AcDbLine
 10
-196.720630199247
 20
-1380.462360034584
 11
-196.720630199247
 21
-1380.412360034584
  0
LINE
  5
1CF
100
AcDbEntity
  8
1
  6
CONTINUOUS
 62
           7
100
AcDbLine
 10
-197.120630199247
 20
-1380.462360034584
 11
-197.120630199247
 21
-1380.412360034584
  0
LINE
  5
1CE
100
AcDbEntity
  8
1
  6
CONTINUOUS
 62
           7
100
AcDbLine
 10
-195.720630199247
 20
-1410.912360034584
 11
-195.720630199247
 21
-1380.412360034585
  0
LINE
  5
1CD
100
AcDbEntity
  8
1
  6
CONTINUOUS
 62
           7
100
AcDbLine
 10
-196.320630199247
 20
-1380.462360034584
 11
-196.320630199247
 21
-1380.412360034585
  0
LINE
  5
1CC
100
AcDbEntity
  8
1
  6
CONTINUOUS
 62
           7
100
AcDbLine
 10
-200.220630199247
 20
-1324.912360034584
 11
-205.220630199247
 21
-1324.912360034584
  0
LINE
  5
1CB
100
AcDbEntity
  8
1
  6
CONTINUOUS
 62
           7
100
AcDbLine
 10
-200.220630199247
 20
-1341.912360034583
 11
-200.220630199247
 21
-1324.912360034584
  0
LINE
  5
1CA
100
AcDbEntity
  8
1
  6
CONTINUOUS
 62
           7
100
AcDbLine
 10
-205.220630199247
 20
-1354.912360034584
 11
-199.020630199247
 21
-1354.912360034584
  0
LINE
  5
1C9
100
AcDbEntity
  8
1
  6
CONTINUOUS
 62
           7
100
AcDbLine
 10
-205.220630199247
 20
-1409.912360034584
 11
-205.220630199247
 21
-1324.912360034584
  0
LINE
  5
1C8
100
AcDbEntity
  8
1
  6
CONTINUOUS
 62
           7
100
AcDbLine
 10
-199.020630199247
 20
-1409.912360034584
 11
-205.220630199247
 21
-1409.912360034584
  0
LINE
  5
1C7
100
AcDbEntity
  8
1
  6
CONTINUOUS
 62
           7
100
AcDbLine
 10
-199.020630199247
 20
-1354.912360034584
 11
-199.020630199247
 21
-1409.912360034584
  0
LINE
  5
1C6
100
AcDbEntity
  8
1
  6
CONTINUOUS
 62
           7
100
AcDbLine
 10
-203.220630199247
 20
-1324.912360034584
 11
-203.220630199247
 21
-1354.912360034584
  0
LINE
  5
1C5
100
AcDbEntity
  8
1
  6
CONTINUOUS
 62
           7
100
AcDbLine
 10
-200.443609262177
 20
-1344.912360034584
 11
-200.420630199251
 21
-1344.912360034584
  0
LINE
  5
1C4
100
AcDbEntity
  8
1
  6
CONTINUOUS
 62
           7
100
AcDbLine
 10
-200.420630199251
 20
-1353.912360034584
 11
-200.420630199251
 21
-1354.262360034583
  0
LINE
  5
1C3
100
AcDbEntity
  8
1
  6
CONTINUOUS
 62
           7
100
AcDbLine
 10
-203.220630199247
 20
-1342.762360034584
 11
-203.220630199245
 21
-1354.412360034584
  0
LINE
  5
1C2
100
AcDbEntity
  8
1
  6
CONTINUOUS
 62
           7
100
AcDbLine
 10
-200.420630199248
 20
-1344.562360034583
 11
-200.420630199251
 21
-1344.912360034584
  0
LINE
  5
1C1
100
AcDbEntity
  8
1
  6
CONTINUOUS
 62
           7
100
AcDbLine
 10
-203.220630199255
 20
-1354.412360034584
 11
-203.220630199245
 21
-1343.412360034584
  0
LINE
  5
1C0
100
AcDbEntity
  8
1
  6
CONTINUOUS
 62
           7
100
AcDbLine
 10
-200.420630199251
 20
-1354.41449099803
 11
-200.420630199251
 21
-1341.912360034583
  0
LINE
  5
1BF
100
AcDbEntity
  8
1
  6
CONTINUOUS
 62
           7
100
AcDbLine
 10
-203.720630199247
 20
-1354.412360034584
 11
-203.720630199247
 21
-1354.912360034584
  0
INSERT
  5
40
100
AcDbEntity
  8
0
100
AcDbBlockReference
  2
M04_____MI__10
 10
0.0
 20
0.0
  0
INSERT
  5
41
100
AcDbEntity
  8
0
100
AcDbBlockReference
  2
M04_____MI__11
 10
0.0
 20
0.0
  0
ENDBLK
  5
1FE
100
AcDbEntity
  8
0
100
AcDbBlockEnd
  0
BLOCK
  5
43
100
AcDbEntity
  8
0
100
AcDbBlockBegin
  2
X_A______13
 70
           0
 10
0.0
 20
0.0
 30
0.0
  3
X_A______13
  1

  0
ARC
  5
215
100
AcDbEntity
  8
1
  6
CONTINUOUS
 62
           7
100
AcDbCircle
 10
-199.420630199252
 20
-1415.412360034584
 40
1.499999999999
100
AcDbArc
 50
-34.695153531234
 51
0.0
  0
ARC
  5
214
100
AcDbEntity
  8
1
  6
CONTINUOUS
 62
           7
100
AcDbCircle
 10
-202.420630199252
 20
-1422.380924751391
 40
1.499999999999
100
AcDbArc
 50
145.304846468768
 51
180.0
  0
ARC
  5
213
100
AcDbEntity
  8
1
  6
CONTINUOUS
 62
           7
100
AcDbCircle
 10
-202.420630199252
 20
-1436.912360034584
 40
1.5
100
AcDbArc
 50
180.0
 51
-90.0
  0
ARC
  5
212
100
AcDbEntity
  8
1
  6
CONTINUOUS
 62
           7
100
AcDbCircle
 10
-196.920630199252
 20
-1438.412360034584
 40
1.5
100
AcDbArc
 50
0.0
 51
90.0
  0
ARC
  5
211
100
AcDbEntity
  8
1
  6
CONTINUOUS
 62
           7
100
AcDbCircle
 10
-196.92063019926
 20
-1419.706943073905
 40
3.0
100
AcDbArc
 50
145.30484646876
 51
-179.999999999943
  0
ARC
  5
210
100
AcDbEntity
  8
1
  6
CONTINUOUS
 62
           7
100
AcDbCircle
 10
-196.420630199255
 20
-1419.863126746552
 40
5.000000000002
100
AcDbArc
 50
145.246425268491
 51
-179.999999999979
  0
ARC
  5
20F
100
AcDbEntity
  8
1
  6
CONTINUOUS
 62
           7
100
AcDbCircle
 10
-229.920188507434
 20
-1424.421768187056
 40
29.999999999985
100
AcDbArc
 50
-23.558574976002
 51
0.310911802332
  0
ARC
  5
20E
100
AcDbEntity
  8
1
  6
CONTINUOUS
 62
           7
100
AcDbCircle
 10
-231.420188507434
 20
-1424.421768187056
 40
29.999999999985
100
AcDbArc
 50
-23.558574976002
 51
0.310911802332
  0
LINE
  5
20D
100
AcDbEntity
  8
1
  6
DOT_CENTER
 62
           4
100
AcDbLine
 10
-197.920630199252
 20
-1473.912360034584
 11
-194.420630199252
 21
-1473.912360034584
  0
LINE
  5
20C
100
AcDbEntity
  8
1
  6
CONTINUOUS
 62
           7
100
AcDbLine
 10
-203.920630199252
 20
-1436.912360034584
 11
-203.920630199252
 21
-1422.380924751391
  0
LINE
  5
20B
100
AcDbEntity
  8
1
  6
CONTINUOUS
 62
           7
100
AcDbLine
 10
-196.920630199252
 20
-1438.412360034584
 11
-202.420630199252
 21
-1438.412360034584
  0
LINE
  5
20A
100
AcDbEntity
  8
1
  6
CONTINUOUS
 62
           7
100
AcDbLine
 10
-196.920630199252
 20
-1506.912360034584
 11
-196.920630199252
 21
-1438.412360034584
  0
LINE
  5
209
100
AcDbEntity
  8
1
  6
CONTINUOUS
 62
           7
100
AcDbLine
 10
-195.420630199252
 20
-1506.912360034584
 11
-196.920630199252
 21
-1506.912360034584
  0
LINE
  5
208
100
AcDbEntity
  8
1
  6
CONTINUOUS
 62
           7
100
AcDbLine
 10
-195.420630199252
 20
-1438.412360034584
 11
-195.420630199252
 21
-1506.912360034584
  0
LINE
  5
207
100
AcDbEntity
  8
1
  6
CONTINUOUS
 62
           7
100
AcDbLine
 10
-202.420630199252
 20
-1436.912360034584
 11
-196.920630199252
 21
-1436.912360034584
  0
LINE
  5
206
100
AcDbEntity
  8
1
  6
CONTINUOUS
 62
           7
100
AcDbLine
 10
-202.420630199252
 20
-1436.412360034584
 11
-202.420630199252
 21
-1436.912360034584
  0
LINE
  5
205
100
AcDbEntity
  8
1
  6
CONTINUOUS
 62
           7
100
AcDbLine
 10
-203.653918486717
 20
-1421.527109783146
 11
-199.420630199252
 21
-1415.412360034584
  0
LINE
  5
204
100
AcDbEntity
  8
1
  6
DOT_CENTER
 62
           4
100
AcDbLine
 10
-197.920630199252
 20
-1497.912360034584
 11
-194.420630199252
 21
-1497.912360034584
  0
LINE
  5
203
100
AcDbEntity
  8
1
  6
CONTINUOUS
 62
           7
100
AcDbLine
 10
-197.920630199252
 20
-1410.912360034584
 11
-197.920630199252
 21
-1415.412360034584
  0
LINE
  5
202
100
AcDbEntity
  8
1
  6
CONTINUOUS
 62
           7
100
AcDbLine
 10
-201.420630199255
 20
-1419.863126746554
 11
-201.420630199255
 21
-1424.584560426989
  0
LINE
  5
201
100
AcDbEntity
  8
1
  6
CONTINUOUS
 62
           7
100
AcDbLine
 10
-199.92063019926
 20
-1419.706943073908
 11
-199.920630199255
 21
-1424.584560427165
  0
LINE
  5
200
100
AcDbEntity
  8
1
  6
CONTINUOUS
 62
           7
100
AcDbLine
 10
-198.187341911787
 20
-1416.266175002829
 11
-199.387206774191
 21
-1417.999313137414
  0
LINE
  5
1FF
100
AcDbEntity
  8
1
  6
CONTINUOUS
 62
           7
100
AcDbLine
 10
-199.420630199252
 20
-1415.412360034584
 11
-199.420630199252
 21
-1410.912360034584
  0
ENDBLK
  5
216
100
AcDbEntity
  8
0
100
AcDbBlockEnd
  0
BLOCK
  5
45
100
AcDbEntity
  8
0
100
AcDbBlockBegin
  2
X_A______14
 70
           0
 10
0.0
 20
0.0
 30
0.0
  3
X_A______14
  1

  0
ARC
  5
241
100
AcDbEntity
  8
1
  6
CENTER_DASH_DASH
 62
           2
100
AcDbCircle
 10
29.196142730426
 20
-1404.908271426286
 40
1.500000000001
100
AcDbArc
 50
146.899822003306
 51
-123.100177996759
  0
ARC
  5
240
100
AcDbEntity
  8
1
  6
CENTER_DASH_DASH
 62
           2
100
AcDbCircle
 10
23.462044813749
 20
-1413.704300137129
 40
1.500000000001
100
AcDbArc
 50
56.899822003274
 51
146.899822003255
  0
ARC
  5
23F
100
AcDbEntity
  8
1
  6
CENTER_DASH_DASH
 62
           2
100
AcDbCircle
 10
32.210178981974
 20
-1413.438573163285
 40
3.5
100
AcDbArc
 50
-123.10017799673
 51
-65.065896747515
  0
ARC
  5
23E
100
AcDbEntity
  8
1
  6
CENTER_DASH_DASH
 62
           2
100
AcDbCircle
 10
33.217517385491
 20
-1405.73920959987
 40
3.000000000001
100
AcDbArc
 50
-123.100177996738
 51
-77.223299058778
  0
ARC
  5
23D
100
AcDbEntity
  8
1
  6
CENTER_DASH_DASH
 62
           2
100
AcDbCircle
 10
0.957648287225
 20
-1396.944758065932
 40
5.000000000001
100
AcDbArc
 50
11.619868521086
 51
56.89982200327
  0
ARC
  5
23C
100
AcDbEntity
  8
1
  6
CENTER_DASH_DASH
 62
           2
100
AcDbCircle
 10
12.225804052532
 20
-1401.584560442101
 40
1.5
100
AcDbArc
 50
146.899822003243
 51
-158.950978203301
  0
ARC
  5
23B
100
AcDbEntity
  8
1
  6
CENTER_DASH_DASH
 62
           2
100
AcDbCircle
 10
30.787097541235
 20
-1408.034419779155
 40
20.0
100
AcDbArc
 50
40.062349377596
 51
56.899822003271
  0
ARC
  5
23A
100
AcDbEntity
  8
1
  6
CENTER_DASH_DASH
 62
           2
100
AcDbCircle
 10
73.005314964514
 20
-1443.912360034584
 40
5.599999999999
100
AcDbArc
 50
90.970314247619
 51
175.049326905516
  0
ARC
  5
239
100
AcDbEntity
  8
1
  6
CENTER_DASH_DASH
 62
           2
100
AcDbCircle
 10
33.726639881231
 20
-1396.782756091828
 40
27.133651381217
100
AcDbArc
 50
-167.444841964195
 51
-128.08542525432
  0
ARC
  5
238
100
AcDbEntity
  8
1
  6
CENTER_DASH_DASH
 62
           2
100
AcDbCircle
 10
73.005314964514
 20
-1443.912360034584
 40
9.0
100
AcDbArc
 50
-123.100177996728
 51
34.513566760293
  0
ARC
  5
237
100
AcDbEntity
  8
1
  6
CENTER_DASH_DASH
 62
           2
100
AcDbCircle
 10
37.58526818908
 20
-1425.000187065143
 40
16.750000000001
100
AcDbArc
 50
43.009820576571
 51
102.776700941209
  0
ARC
  5
236
100
AcDbEntity
  8
1
  6
CENTER_DASH_DASH
 62
           2
100
AcDbCircle
 10
73.005314964514
 20
-1443.912360034584
 40
3.75
100
AcDbArc
 50
-136.990179423423
 51
43.00982057656
  0
ARC
  5
235
100
AcDbEntity
  8
1
  6
CENTER_DASH_DASH
 62
           2
100
AcDbCircle
 10
37.58526818908
 20
-1425.000187065143
 40
9.25
100
AcDbArc
 50
43.009820576569
 51
114.934103252469
  0
LINE
  5
234
100
AcDbEntity
  8
1
  6
DOT_CENTER
 62
           1
100
AcDbLine
 10
14.280562531653
 20
-1386.5303871949
 11
-42.657989501509
 21
-1349.412360034584
  0
LINE
  5
233
100
AcDbEntity
  8
1
  6
DOT_CENTER
 62
           4
100
AcDbLine
 10
73.005314964514
 20
-1449.912360034584
 11
73.005314964514
 21
-1437.912360034584
  0
LINE
  5
232
100
AcDbEntity
  8
1
  6
CENTER_DASH_DASH
 62
           2
100
AcDbLine
 10
65.277501487058
 20
-1430.130605357807
 11
61.058342245541
 21
-1436.602738614559
  0
LINE
  5
231
100
AcDbEntity
  8
1
  6
CENTER_DASH_DASH
 62
           2
100
AcDbLine
 10
13.71647750305
 20
-1373.031736532131
 11
36.649399953933
 21
-1387.981622119343
  0
LINE
  5
230
100
AcDbEntity
  8
1
  6
CENTER_DASH_DASH
 62
           2
100
AcDbLine
 10
16.989635668184
 20
-1418.139434842231
 11
36.649399953933
 21
-1387.981622119343
  0
LINE
  5
22F
100
AcDbEntity
  8
1
  6
CENTER_DASH_DASH
 62
           2
100
AcDbLine
 10
41.709188811096
 20
-1391.280079377551
 11
36.649399953933
 21
-1387.981622119343
  0
LINE
  5
22E
100
AcDbEntity
  8
1
  6
CENTER_DASH_DASH
 62
           2
100
AcDbLine
 10
69.741897417534
 20
-1423.282282334438
 11
46.093987680713
 21
-1395.162002979736
  0
LINE
  5
22D
100
AcDbEntity
  8
1
  6
CENTER_DASH_DASH
 62
           2
100
AcDbLine
 10
80.421243407544
 20
-1438.812947781406
 11
69.741897417534
 21
-1423.282282334438
  0
LINE
  5
22C
100
AcDbEntity
  8
1
  6
CENTER_DASH_DASH
 62
           2
100
AcDbLine
 10
16.989635668184
 20
-1418.139434842231
 11
68.090373893077
 21
-1451.451813215306
  0
LINE
  5
22B
100
AcDbEntity
  8
1
  6
CENTER_DASH_DASH
 62
           2
100
AcDbLine
 10
28.895250186419
 20
-1402.623109795906
 11
27.638674656298
 21
-1401.803952950666
  0
LINE
  5
22A
100
AcDbEntity
  8
1
  6
CENTER_DASH_DASH
 62
           2
100
AcDbLine
 10
21.249786297516
 20
-1414.351148077029
 11
19.993210767396
 21
-1413.531991231789
  0
LINE
  5
229
100
AcDbEntity
  8
1
  6
CENTER_DASH_DASH
 62
           2
100
AcDbLine
 10
27.939567200305
 20
-1404.089114581047
 11
28.895250186419
 21
-1402.623109795906
  0
LINE
  5
228
100
AcDbEntity
  8
1
  6
CENTER_DASH_DASH
 62
           2
100
AcDbLine
 10
21.249786297516
 20
-1414.351148077029
 11
22.205469283629
 21
-1412.885143291889
  0
LINE
  5
227
100
AcDbEntity
  8
1
  6
CENTER_DASH_DASH
 62
           2
100
AcDbLine
 10
31.579203695011
 20
-1408.252360660111
 11
28.376985885186
 21
-1406.164846956406
  0
LINE
  5
226
100
AcDbEntity
  8
1
  6
CENTER_DASH_DASH
 62
           2
100
AcDbLine
 10
75.747452947287
 20
-1441.354396140501
 11
49.833484512131
 21
-1413.574615004902
  0
LINE
  5
225
100
AcDbEntity
  8
1
  6
CENTER_DASH_DASH
 62
           2
100
AcDbLine
 10
44.349208546586
 20
-1418.69054279307
 11
70.263176981742
 21
-1446.470323928668
  0
LINE
  5
224
100
AcDbEntity
  8
1
  6
CENTER_DASH_DASH
 62
           2
100
AcDbLine
 10
24.281201658989
 20
-1412.447724607008
 11
30.298813009748
 21
-1416.370582733566
  0
LINE
  5
223
100
AcDbEntity
  8
1
  6
DOT_CENTER
 62
           1
100
AcDbLine
 10
83.057919205477
 20
-1450.4656147965
 11
62.952710723552
 21
-1437.359105272668
  0
LINE
  5
222
100
AcDbEntity
  8
1
  6
DOT_CENTER
 62
           1
100
AcDbLine
 10
66.452060202598
 20
-1453.964964275546
 11
79.558569726431
 21
-1433.859755793622
  0
LINE
  5
221
100
AcDbEntity
  8
1
  6
CENTER_DASH_DASH
 62
           2
100
AcDbLine
 10
6.470603700147
 20
-1395.763750796228
 11
17.938799533501
 21
-1378.171693374543
  0
LINE
  5
220
100
AcDbEntity
  8
1
  6
CENTER_DASH_DASH
 62
           2
100
AcDbLine
 10
10.969228522412
 20
-1400.765403596861
 11
23.383960164022
 21
-1381.721373037248
  0
LINE
  5
21F
100
AcDbEntity
  8
1
  6
CENTER_DASH_DASH
 62
           2
100
AcDbLine
 10
16.27130250419
 20
-1416.272887905906
 11
10.825893850287
 21
-1402.123310315096
  0
LINE
  5
21E
100
AcDbEntity
  8
1
  6
CENTER_DASH_DASH
 62
           2
100
AcDbLine
 10
7.241830332649
 20
-1402.681052494414
 11
5.855175600674
 21
-1395.9376700787
  0
LINE
  5
21D
100
AcDbEntity
  8
1
  6
CENTER_DASH_DASH
 62
           2
100
AcDbLine
 10
7.708467066731
 20
-1402.501469203414
 11
10.083866187855
 21
-1401.587306300131
  0
LINE
  5
21C
100
AcDbEntity
  8
1
  6
CENTER_DASH_DASH
 62
           2
100
AcDbLine
 10
9.964663535412
 20
-1400.597295829679
 11
7.642282473195
 21
-1397.384605155134
  0
LINE
  5
21B
100
AcDbEntity
  8
1
  6
CENTER_DASH_DASH
 62
           2
100
AcDbLine
 10
-31.557989506245
 20
-1343.517482373701
 11
3.158644718393
 21
-1366.149125189526
  0
LINE
  5
21A
100
AcDbEntity
  8
1
  6
CENTER_DASH_DASH
 62
           2
100
AcDbLine
 10
3.158644718393
 20
-1366.149125189526
 11
13.71647750305
 21
-1373.031736532131
  0
LINE
  5
219
100
AcDbEntity
  8
1
  6
CENTER_DASH_DASH
 62
           2
100
AcDbLine
 10
2.854457035001
 20
-1392.212677910288
 11
-13.201716408814
 21
-1381.745719045034
  0
LINE
  5
218
100
AcDbEntity
  8
1
  6
CENTER_DASH_DASH
 62
           2
100
AcDbLine
 10
3.688171104691
 20
-1392.75617296553
 11
2.854457035001
 21
-1392.212677910288
  0
LINE
  5
217
100
AcDbEntity
  8
1
  6
CENTER_DASH_DASH
 62
           2
100
AcDbLine
 10
-13.201716408814
 20
-1381.745719045034
 11
-31.557989504343
 21
-1369.779333898373
  0
ENDBLK
  5
242
100
AcDbEntity
  8
0
100
AcDbBlockEnd
  0
BLOCK
  5
47
100
AcDbEntity
  8
0
100
AcDbBlockBegin
  2
_S____15
 70
           0
 10
0.0
 20
0.0
 30
0.0
  3
_S____15
  1

  0
CIRCLE
  5
247
100
AcDbEntity
  8
1
  6
CENTER_DASH_DASH
 62
           2
100
AcDbCircle
 10
-55.157989501509
 20
-1443.912360034584
 40
3.5
  0
CIRCLE
  5
246
100
AcDbEntity
  8
1
  6
CENTER_DASH_DASH
 62
           2
100
AcDbCircle
 10
-55.157989501509
 20
-1443.912360034584
 40
5.5
  0
LINE
  5
245
100
AcDbEntity
  8
1
  6
DOT_CENTER
 62
           4
100
AcDbLine
 10
-55.157989501509
 20
-1435.912360034584
 11
-55.157989501509
 21
-1446.957908884481
  0
LINE
  5
244
100
AcDbEntity
  8
1
  6
DOT_CENTER
 62
           1
100
AcDbLine
 10
-55.157989501509
 20
-1446.957908884481
 11
-55.157989501509
 21
-1451.912360034584
  0
LINE
  5
243
100
AcDbEntity
  8
1
  6
DOT_CENTER
 62
           1
100
AcDbLine
 10
-63.157989501509
 20
-1443.912360034584
 11
-47.157989501509
 21
-1443.912360034584
  0
ENDBLK
  5
248
100
AcDbEntity
  8
0
100
AcDbBlockEnd
  0
BLOCK
  5
49
100
AcDbEntity
  8
0
100
AcDbBlockBegin
  2
X_A______16
 70
           0
 10
0.0
 20
0.0
 30
0.0
  3
X_A______16
  1

  0
ARC
  5
272
100
AcDbEntity
  8
1
  6
CONTINUOUS
 62
           2
100
AcDbCircle
 10
-56.39123963625
 20
-1423.880924751391
 40
1.5
100
AcDbArc
 50
90.0
 51
144.149199793469
  0
ARC
  5
271
100
AcDbEntity
  8
1
  6
CONTINUOUS
 62
           7
100
AcDbCircle
 10
-58.65798950151
 20
-1411.907581630547
 40
5.000000000001
100
AcDbArc
 50
-45.279953482193
 51
0.0
  0
ARC
  5
270
100
AcDbEntity
  8
1
  6
CONTINUOUS
 62
           7
100
AcDbCircle
 10
-48.407989501509
 20
-1443.734913155826
 40
3.0
100
AcDbArc
 50
180.0
 51
-134.123121062049
  0
ARC
  5
26F
100
AcDbEntity
  8
1
  6
CONTINUOUS
 62
           7
100
AcDbCircle
 10
-55.407989501509
 20
-1447.095706208193
 40
3.5
100
AcDbArc
 50
180.0
 51
-121.965718750798
  0
ARC
  5
26E
100
AcDbEntity
  8
1
  6
CONTINUOUS
 62
           7
100
AcDbCircle
 10
-60.407989501509
 20
-1439.912360034584
 40
1.5
100
AcDbArc
 50
0.0
 51
90.0
  0
ARC
  5
26D
100
AcDbEntity
  8
1
  6
CONTINUOUS
 62
           7
100
AcDbCircle
 10
-49.907989501509
 20
-1439.912360034584
 40
1.5
100
AcDbArc
 50
90.000000000008
 51
180.0
  0
ARC
  5
26C
100
AcDbEntity
  8
1
  6
CONTINUOUS
 62
           7
100
AcDbCircle
 10
-51.657989501509
 20
-1442.952333839435
 40
20.0
100
AcDbArc
 50
-16.837472625677
 51
0.0
  0
CIRCLE
  5
26B
100
AcDbEntity
  8
1
  6
CONTINUOUS
 62
           7
100
AcDbCircle
 10
-43.657989501509
 20
-1473.912360034584
 40
1.75
  0
CIRCLE
  5
26A
100
AcDbEntity
  8
1
  6
CONTINUOUS
 62
           7
100
AcDbCircle
 10
-63.157989501509
 20
-1473.912360034584
 40
1.75
  0
ARC
  5
269
100
AcDbEntity
  8
1
  6
CONTINUOUS
 62
           7
100
AcDbCircle
 10
-62.157989501509
 20
-1457.912360034584
 40
9.25
100
AcDbArc
 50
-13.890001426699
 51
58.034281249202
  0
ARC
  5
268
100
AcDbEntity
  8
1
  6
CONTINUOUS
 62
           7
100
AcDbCircle
 10
-58.657989501509
 20
-1497.912360034584
 40
3.75
100
AcDbArc
 50
166.109998573304
 51
-13.890001426709
  0
ARC
  5
267
100
AcDbEntity
  8
1
  6
CONTINUOUS
 62
           7
100
AcDbCircle
 10
-62.157989501509
 20
-1457.912360034584
 40
16.75
100
AcDbArc
 50
-13.8900014267
 51
45.87687893794
  0
ARC
  5
266
100
AcDbEntity
  8
1
  6
CONTINUOUS
 62
           7
100
AcDbCircle
 10
-58.657989501509
 20
-1497.912360034584
 40
9.0
100
AcDbArc
 50
180.0
 51
-22.386255242976
  0
ARC
  5
265
100
AcDbEntity
  8
1
  6
CONTINUOUS
 62
           7
100
AcDbCircle
 10
-40.626981839964
 20
-1439.270253602359
 40
27.133651381217
100
AcDbArc
 50
135.655336032531
 51
175.014752742407
  0
ARC
  5
264
100
AcDbEntity
  8
1
  6
CONTINUOUS
 62
           7
100
AcDbCircle
 10
-58.657989501509
 20
-1497.912360034584
 40
5.6
100
AcDbArc
 50
34.070492244345
 51
118.149504902251
  0
LINE
  5
263
100
AcDbEntity
  8
1
  6
CONTINUOUS
 62
           7
100
AcDbLine
 10
-53.657989501509
 20
-1411.907581630547
 11
-53.657989501509
 21
-1410.912360034584
  0
LINE
  5
262
100
AcDbEntity
  8
1
  6
CONTINUOUS
 62
           2
100
AcDbLine
 10
-56.7990104222
 20
-1421.447579145188
 11
-55.375947660127
 21
-1417.747615963797
  0
LINE
  5
261
100
AcDbEntity
  8
1
  6
CONTINUOUS
 62
           2
100
AcDbLine
 10
-59.626288054245
 20
-1420.597402731808
 11
-57.563261930876
 21
-1422.088086471798
  0
LINE
  5
260
100
AcDbEntity
  8
1
  6
CONTINUOUS
 62
           7
100
AcDbLine
 10
-60.031560483612
 20
-1420.304564452214
 11
-55.139772738181
 21
-1415.460348271665
  0
LINE
  5
25F
100
AcDbEntity
  8
1
  6
CONTINUOUS
 62
           2
100
AcDbLine
 10
-66.486636383136
 20
-1435.291270317117
 11
-57.607056924351
 21
-1423.002409912611
  0
LINE
  5
25E
100
AcDbEntity
  8
1
  6
CONTINUOUS
 62
           2
100
AcDbLine
 10
-56.39123963625
 20
-1422.380924751391
 11
-33.657989501509
 21
-1422.380924751391
  0
LINE
  5
25D
100
AcDbEntity
  8
1
  6
CONTINUOUS
 62
           2
100
AcDbLine
 10
-54.657989501509
 20
-1415.880924751391
 11
-33.657989501509
 21
-1415.880924751391
  0
LINE
  5
25C
100
AcDbEntity
  8
1
  6
DOT_CENTER
 62
           1
100
AcDbLine
 10
-42.657989501509
 20
-1417.381078191595
 11
-42.657989501509
 21
-1317.381078191595
  0
LINE
  5
25B
100
AcDbEntity
  8
1
  6
DOT_CENTER
 62
           1
100
AcDbLine
 10
-51.657989501509
 20
-1349.412360034584
 11
-33.657989501509
 21
-1349.412360034584
  0
LINE
  5
25A
100
AcDbEntity
  8
1
  6
DOT_CENTER
 62
           1
100
AcDbLine
 10
-70.657989501509
 20
-1497.912360034584
 11
-46.657989501509
 21
-1497.912360034584
  0
LINE
  5
259
100
AcDbEntity
  8
1
  6
DOT_CENTER
 62
           1
100
AcDbLine
 10
-58.657989501509
 20
-1509.912360034584
 11
-58.657989501509
 21
-1485.912360034584
  0
LINE
  5
258
100
AcDbEntity
  8
1
  6
DOT_CENTER
 62
           1
100
AcDbLine
 10
-55.157989501509
 20
-1446.957908884481
 11
-55.157989501509
 21
-1434.912360034584
  0
LINE
  5
257
100
AcDbEntity
  8
1
  6
CONTINUOUS
 62
           7
100
AcDbLine
 10
-58.907989501509
 20
-1439.912360034584
 11
-58.907989501509
 21
-1447.095706208193
  0
LINE
  5
256
100
AcDbEntity
  8
1
  6
CONTINUOUS
 62
           7
100
AcDbLine
 10
-53.178474407713
 20
-1460.132902463877
 11
-62.298333458453
 21
-1497.012140130817
  0
LINE
  5
255
100
AcDbEntity
  8
1
  6
CONTINUOUS
 62
           7
100
AcDbLine
 10
-55.017645544565
 20
-1498.812579938352
 11
-45.897786493824
 21
-1461.933342271412
  0
LINE
  5
254
100
AcDbEntity
  8
1
  6
CONTINUOUS
 62
           7
100
AcDbLine
 10
-51.407989501509
 20
-1443.734913155826
 11
-51.407989501509
 21
-1439.912360034584
  0
LINE
  5
253
100
AcDbEntity
  8
1
  6
CONTINUOUS
 62
           7
100
AcDbLine
 10
-62.157989501509
 20
-1438.412360034584
 11
-60.407989501509
 21
-1438.412360034584
  0
LINE
  5
252
100
AcDbEntity
  8
1
  6
CONTINUOUS
 62
           7
100
AcDbLine
 10
-49.907989501509
 20
-1438.412360034584
 11
-48.157989501509
 21
-1438.412360034584
  0
LINE
  5
251
100
AcDbEntity
  8
1
  6
CONTINUOUS
 62
           7
100
AcDbLine
 10
-62.157989501509
 20
-1438.412360034584
 11
-62.157989501509
 21
-1436.912360034584
  0
LINE
  5
250
100
AcDbEntity
  8
1
  6
CONTINUOUS
 62
           7
100
AcDbLine
 10
-48.157989501509
 20
-1438.412360034584
 11
-48.157989501509
 21
-1436.912360034584
  0
LINE
  5
24F
100
AcDbEntity
  8
1
  6
CONTINUOUS
 62
           7
100
AcDbLine
 10
-67.657989501509
 20
-1436.912360034584
 11
-67.657989501509
 21
-1497.912360034584
  0
LINE
  5
24E
100
AcDbEntity
  8
1
  6
CONTINUOUS
 62
           7
100
AcDbLine
 10
-50.33625269934
 20
-1501.339997208414
 11
-43.157989501509
 21
-1483.912360034584
  0
LINE
  5
24D
100
AcDbEntity
  8
1
  6
CONTINUOUS
 62
           7
100
AcDbLine
 10
-43.157989501509
 20
-1483.912360034584
 11
-32.515384301014
 21
-1448.745490676427
  0
LINE
  5
24C
100
AcDbEntity
  8
1
  6
CONTINUOUS
 62
           7
100
AcDbLine
 10
-31.657989501509
 20
-1442.952333839435
 11
-31.657989501509
 21
-1436.912360034584
  0
LINE
  5
24B
100
AcDbEntity
  8
1
  6
CONTINUOUS
 62
           7
100
AcDbLine
 10
-67.657989501509
 20
-1436.912360034584
 11
-31.657989501509
 21
-1436.912360034584
  0
LINE
  5
24A
100
AcDbEntity
  8
1
  6
CONTINUOUS
 62
           7
100
AcDbLine
 10
-31.657989501509
 20
-1409.536859834424
 11
-31.657989501509
 21
-1436.912360034584
  0
LINE
  5
249
100
AcDbEntity
  8
1
  6
CONTINUOUS
 62
           7
100
AcDbLine
 10
-51.332973248065
 20
-1483.912360034584
 11
-59.058891549369
 21
-1483.912360034584
  0
INSERT
  5
4A
100
AcDbEntity
  8
0
100
AcDbBlockReference
  2
_S____15
 10
0.0
 20
0.0
  0
ENDBLK
  5
273
100
AcDbEntity
  8
0
100
AcDbBlockEnd
  0
BLOCK
  5
4C
100
AcDbEntity
  8
0
100
AcDbBlockBegin
  2
A__17
 70
           0
 10
0.0
 20
0.0
 30
0.0
  3
A__17
  1

  0
MTEXT
  5
2A0
100
AcDbEntity
  8
1
 62
           3
100
AcDbMText
 10
-60.65798950238
 20
-1406.783448488066
 30
0.0
 40
3.0
 41
0.0
 71
           5
 72
           1
  1
2
  7
CONVERTER_2
  0
MTEXT
  5
29E
100
AcDbEntity
  8
1
 62
           3
100
AcDbMText
 10
-60.65798950238
 20
-1403.083448488066
 30
0.0
 40
3.0
 41
0.0
 71
           5
 72
           1
  1
用
  7
CONVERTER_1
  0
MTEXT
  5
29D
100
AcDbEntity
  8
1
 62
           3
100
AcDbMText
 10
-60.65798950238
 20
-1399.383448488066
 30
0.0
 40
3.0
 41
0.0
 71
           5
 72
           1
  1
元
  7
CONVERTER_1
  0
MTEXT
  5
29C
100
AcDbEntity
  8
1
 62
           3
100
AcDbMText
 10
-60.65798950238
 20
-1395.683448488067
 30
0.0
 40
3.0
 41
0.0
 71
           5
 72
           1
  1
吊
  7
CONVERTER_1
  0
MTEXT
  5
29B
100
AcDbEntity
  8
1
 62
           3
100
AcDbMText
 10
-60.65798950238
 20
-1391.983448488066
 30
0.0
 40
3.0
 41
0.0
 71
           5
 72
           1
  1
右
  7
CONVERTER_1
  0
MTEXT
  5
29A
100
AcDbEntity
  8
1
 62
           3
100
AcDbMText
 10
-60.65798950238
 20
-1388.283448488066
 30
0.0
 40
3.0
 41
0.0
 71
           5
 72
           1
  1
観
  7
CONVERTER_1
  0
MTEXT
  5
299
100
AcDbEntity
  8
1
 62
           3
100
AcDbMText
 10
-60.65798950238
 20
-1384.583448488066
 30
0.0
 40
3.0
 41
0.0
 71
           5
 72
           1
  1
内
  7
CONVERTER_1
  0
ARC
  5
297
100
AcDbEntity
  8
1
  6
CONTINUOUS
 62
           7
100
AcDbCircle
 10
-33.557989501509
 20
-1408.912360034584
 40
2.0
100
AcDbArc
 50
-90.0
 51
0.0
  0
ARC
  5
296
100
AcDbEntity
  8
1
  6
CONTINUOUS
 62
           7
100
AcDbCircle
 10
-65.057989501509
 20
-1408.912360034584
 40
2.0
100
AcDbArc
 50
180.0
 51
-90.0
  0
ARC
  5
295
100
AcDbEntity
  8
1
  6
CONTINUOUS
 62
           7
100
AcDbCircle
 10
-33.557989508607
 20
-1310.912360034584
 40
2.0
100
AcDbArc
 50
0.000000004156
 51
90.0
  0
ARC
  5
294
100
AcDbEntity
  8
1
  6
CONTINUOUS
 62
           7
100
AcDbCircle
 10
-65.05798950632
 20
-1310.912360034584
 40
2.0
100
AcDbArc
 50
90.0
 51
-179.999999997166
  0
CIRCLE
  5
293
100
AcDbEntity
  8
1
  6
CONTINUOUS
 62
           7
100
AcDbCircle
 10
-48.557989501509
 20
-1399.912360034584
 40
5.75
  0
CIRCLE
  5
292
100
AcDbEntity
  8
1
  6
CONTINUOUS
 62
           7
100
AcDbCircle
 10
-61.057989501509
 20
-1375.912360034584
 40
2.8
  0
CIRCLE
  5
291
100
AcDbEntity
  8
1
  6
CONTINUOUS
 62
           7
100
AcDbCircle
 10
-61.057989501509
 20
-1360.912360034584
 40
2.8
  0
ARC
  5
290
100
AcDbEntity
  8
1
  6
CONTINUOUS
 62
           7
100
AcDbCircle
 10
-48.557989501509
 20
-1319.912360034584
 40
5.749999999933
100
AcDbArc
 50
-164.350044077647
 51
34.201251747579
  0
ARC
  5
28F
100
AcDbEntity
  8
1
  6
CONTINUOUS
 62
           7
100
AcDbCircle
 10
-48.557989501509
 20
-1319.912360034584
 40
5.749999999922
100
AcDbArc
 50
34.201251747579
 51
-164.350044077647
  0
ARC
  5
28E
100
AcDbEntity
  8
1
  6
DASHED
 62
           2
100
AcDbCircle
 10
-48.557989501509
 20
-1402.412360034584
 40
2.6
100
AcDbArc
 50
180.0
 51
0.0
  0
ARC
  5
28D
100
AcDbEntity
  8
1
  6
DASHED
 62
           2
100
AcDbCircle
 10
-48.557989501509
 20
-1397.412360034584
 40
2.600000000001
100
AcDbArc
 50
0.0
 51
180.0
  0
ARC
  5
28C
100
AcDbEntity
  8
1
  6
DASHED
 62
           2
100
AcDbCircle
 10
-48.557989501509
 20
-1332.412360034584
 40
2.600000000001
100
AcDbArc
 50
0.0
 51
180.0
  0
ARC
  5
28B
100
AcDbEntity
  8
1
  6
DASHED
 62
           2
100
AcDbCircle
 10
-48.557989501509
 20
-1337.412360034584
 40
2.6
100
AcDbArc
 50
180.0
 51
0.0
  0
LINE
  5
28A
100
AcDbEntity
  8
1
  6
CONTINUOUS
 62
           7
100
AcDbLine
 10
-65.557989501509
 20
-1409.412360034584
 11
-65.557989501509
 21
-1381.962360034584
  0
LINE
  5
289
100
AcDbEntity
  8
1
  6
CONTINUOUS
 62
           7
100
AcDbLine
 10
-67.057989501509
 20
-1408.912360034584
 11
-67.05798950632
 21
-1310.912360034683
  0
LINE
  5
288
100
AcDbEntity
  8
1
  6
CONTINUOUS
 62
           7
100
AcDbLine
 10
-65.05798950632
 20
-1308.912360034584
 11
-33.557989508607
 21
-1308.912360034584
  0
LINE
  5
287
100
AcDbEntity
  8
1
  6
CONTINUOUS
 62
           7
100
AcDbLine
 10
-33.557989501509
 20
-1410.912360034584
 11
-65.057989501509
 21
-1410.912360034584
  0
LINE
  5
286
100
AcDbEntity
  8
1
  6
CONTINUOUS
 62
           7
100
AcDbLine
 10
-31.557989508607
 20
-1310.912360034439
 11
-31.557989501509
 21
-1408.912360034584
  0
LINE
  5
285
100
AcDbEntity
  8
1
  6
DOT_CENTER
 62
           1
100
AcDbLine
 10
-57.557989501509
 20
-1319.912360034584
 11
-39.557989501509
 21
-1319.912360034584
  0
LINE
  5
284
100
AcDbEntity
  8
1
  6
DOT_CENTER
 62
           1
100
AcDbLine
 10
-48.557989501509
 20
-1408.912360034584
 11
-48.557989501509
 21
-1310.912360034584
  0
LINE
  5
283
100
AcDbEntity
  8
1
  6
DOT_CENTER
 62
           1
100
AcDbLine
 10
-57.557989501509
 20
-1399.912360034584
 11
-39.557989501509
 21
-1399.912360034584
  0
LINE
  5
282
100
AcDbEntity
  8
1
  6
CONTINUOUS
 62
           7
100
AcDbLine
 10
-53.057989501509
 20
-1356.362360034584
 11
-67.057989501509
 21
-1356.362360034584
  0
LINE
  5
281
100
AcDbEntity
  8
1
  6
CONTINUOUS
 62
           7
100
AcDbLine
 10
-53.057989501509
 20
-1380.462360034584
 11
-53.057989501509
 21
-1356.362360034584
  0
LINE
  5
280
100
AcDbEntity
  8
1
  6
CONTINUOUS
 62
           7
100
AcDbLine
 10
-67.057989501509
 20
-1380.462360034584
 11
-53.057989501509
 21
-1380.462360034584
  0
LINE
  5
27F
100
AcDbEntity
  8
1
  6
CONTINUOUS
 62
           7
100
AcDbLine
 10
-65.557989501509
 20
-1381.962360034584
 11
-55.757989501508
 21
-1381.962360034584
  0
LINE
  5
27E
100
AcDbEntity
  8
1
  6
CONTINUOUS
 62
           7
100
AcDbLine
 10
-55.757989501508
 20
-1409.412360034584
 11
-65.557989501509
 21
-1409.412360034584
  0
LINE
  5
27D
100
AcDbEntity
  8
1
  6
CONTINUOUS
 62
           7
100
AcDbLine
 10
-55.757989501508
 20
-1381.962360034584
 11
-55.757989501508
 21
-1409.412360034584
  0
LINE
  5
27C
100
AcDbEntity
  8
1
  6
DASHED
 62
           2
100
AcDbLine
 10
-51.157989501509
 20
-1397.412360034584
 11
-51.157989501509
 21
-1402.412360034584
  0
LINE
  5
27B
100
AcDbEntity
  8
1
  6
DASHED
 62
           2
100
AcDbLine
 10
-45.957989501508
 20
-1402.412360034584
 11
-45.957989501508
 21
-1397.412360034584
  0
LINE
  5
27A
100
AcDbEntity
  8
1
  6
DOT_CENTER
 62
           1
100
AcDbLine
 10
-78.507989501509
 20
-1368.412360034583
 11
-47.457989501509
 21
-1368.412360034584
  0
LINE
  5
279
100
AcDbEntity
  8
1
  6
DASHED
 62
           2
100
AcDbLine
 10
-45.957989501508
 20
-1337.412360034584
 11
-45.957989501508
 21
-1332.412360034584
  0
LINE
  5
278
100
AcDbEntity
  8
1
  6
DASHED
 62
           2
100
AcDbLine
 10
-51.157989501509
 20
-1332.412360034584
 11
-51.157989501509
 21
-1337.412360034584
  0
LINE
  5
277
100
AcDbEntity
  8
1
  6
DOT_CENTER
 62
           1
100
AcDbLine
 10
-53.557989501509
 20
-1334.912360034584
 11
-43.557989501509
 21
-1334.912360034584
  0
LINE
  5
276
100
AcDbEntity
  8
1
  6
DOT_CENTER
 62
           1
100
AcDbLine
 10
-80.057989501045
 20
-1368.412360034584
 11
-78.507989501509
 21
-1368.412360034583
  0
LINE
  5
275
100
AcDbEntity
  8
1
  6
CONTINUOUS
 62
           7
100
AcDbLine
 10
-67.557989501509
 20
-1409.912360034583
 11
-66.790040309078
 21
-1409.912360034583
  0
LINE
  5
274
100
AcDbEntity
  8
1
  6
CONTINUOUS
 62
           7
100
AcDbLine
 10
-67.557989501509
 20
-1382.912360034582
 11
-67.557989501509
 21
-1409.912360034583
  0
ENDBLK
  5
2A1
100
AcDbEntity
  8
0
100
AcDbBlockEnd
  0
BLOCK
  5
4E
100
AcDbEntity
  8
0
100
AcDbBlockBegin
  2
STD_01_MI__18
 70
           0
 10
0.0
 20
0.0
 30
0.0
  3
STD_01_MI__18
  1

  0
SPLINE
  5
2BD
100
AcDbEntity
  8
1
  6
CENTER_DASH_DASH
 62
           2
100
AcDbSpline
210
0.0
220
0.0
230
1.0
 70
           0
 71
           4
 72
           9
 73
           5
 74
           5
 42
0.00000000001
 43
0.00000000001
 44
0.00000000001
 40
0.0
 40
0.0
 40
0.0
 40
0.0
 40
1.606522385999646
 40
3.5900264062226124
 40
3.5900264062226124
 40
3.5900264062226124
 40
3.5900264062226124
 10
-145.44591809457339
 20
-1368.8603104958879
 30
0.0
 10
-145.9109338657567
 20
-1368.836881673031
 30
0.0
 10
-146.49483747098279
 20
-1367.8567042980601
 30
0.0
 10
-145.58724530815161
 20
-1367.156337305498
 30
0.0
 10
-146.37970592296469
 20
-1366.8866225858801
 30
0.0
 11
-145.44591809457339
 21
-1368.8603104958879
 31
0.0
 11
-145.97878146905282
 21
-1368.5726734752359
 31
0.0
 11
-146.13484691462338
 21
-1368.015663573691
 31
0.0
 11
-145.94279620513771
 21
-1367.3751470910629
 31
0.0
 11
-146.37970592296469
 21
-1366.8866225858801
 31
0.0
  0
SPLINE
  5
2BC
100
AcDbEntity
  8
1
  6
CENTER_DASH_DASH
 62
           2
100
AcDbSpline
210
0.0
220
0.0
230
1.0
 70
           0
 71
           4
 72
           8
 73
           4
 74
           3
 42
0.00000000001
 43
0.00000000001
 44
0.00000000001
 40
0.0
 40
0.0
 40
0.0
 40
0.0
 40
6.8905403159644871
 40
6.8905403159644871
 40
6.8905403159644871
 40
6.8905403159644871
 10
-145.39061790869471
 20
-1386.638866399798
 30
0.0
 10
-147.46698412973541
 20
-1385.7234277247981
 30
0.0
 10
-144.66498783689991
 20
-1384.9194364767959
 30
0.0
 10
-145.9627820319125
 20
-1383.8117024968419
 30
0.0
 11
-145.39061790869471
 21
-1386.638866399798
 31
0.0
 11
-145.96866448006415
 21
-1385.2973951876777
 31
0.0
 11
-145.9627820319125
 21
-1383.8117024968419
 31
0.0
  0
CIRCLE
  5
2BB
100
AcDbEntity
  8
1
  6
CENTER_DASH_DASH
 62
           2
100
AcDbCircle
 10
-148.660129706724
 20
-1368.782054734328
 40
1.15
  0
CIRCLE
  5
2BA
100
AcDbEntity
  8
1
  6
CENTER_DASH_DASH
 62
           2
100
AcDbCircle
 10
-152.186362678161
 20
-1370.298567187263
 40
1.15
  0
CIRCLE
  5
2B9
100
AcDbEntity
  8
1
  6
CENTER_DASH_DASH
 62
           2
100
AcDbCircle
 10
-155.567004499322
 20
-1372.116640306194
 40
1.15
  0
CIRCLE
  5
2B8
100
AcDbEntity
  8
1
  6
CENTER_DASH_DASH
 62
           2
100
AcDbCircle
 10
-147.965851512724
 20
-1384.702951094069
 40
1.15
  0
CIRCLE
  5
2B7
100
AcDbEntity
  8
1
  6
CENTER_DASH_DASH
 62
           2
100
AcDbCircle
 10
-151.610711631642
 20
-1383.499155554007
 40
1.15
  0
CIRCLE
  5
2B6
100
AcDbEntity
  8
1
  6
CENTER_DASH_DASH
 62
           2
100
AcDbCircle
 10
-155.136784262985
 20
-1381.982270328534
 40
1.150000000001
  0
CIRCLE
  5
2B5
100
AcDbEntity
  8
1
  6
CENTER_DASH_DASH
 62
           2
100
AcDbCircle
 10
-158.517233864924
 20
-1380.163839830137
 40
1.150000000002
  0
ARC
  5
2B4
100
AcDbEntity
  8
1
  6
CENTER_DASH_DASH
 62
           2
100
AcDbCircle
 10
-169.716284112249
 20
-1378.412360034583
 40
0.399999999998
100
AcDbArc
 50
88.385566017017
 51
-88.385566017026
  0
ARC
  5
2B3
100
AcDbEntity
  8
1
  6
CENTER_DASH_DASH
 62
           2
100
AcDbCircle
 10
-155.781938025244
 20
-1378.412360034583
 40
0.4
100
AcDbArc
 50
-88.385566017022
 51
91.614433983027
  0
ARC
  5
2B2
100
AcDbEntity
  8
1
  6
CENTER_DASH_DASH
 62
           2
100
AcDbCircle
 10
-161.071877551119
 20
-1377.29889225202
 40
1.150000000002
100
AcDbArc
 50
-38.355932301278
 51
53.270889905275
  0
ARC
  5
2B1
100
AcDbEntity
  8
1
  6
CENTER_DASH_DASH
 62
           2
100
AcDbCircle
 10
-133.056323355789
 20
-1409.922317584273
 40
44.0
100
AcDbArc
 50
107.268435860042
 51
109.273343950561
  0
ARC
  5
2B0
100
AcDbEntity
  8
1
  6
CENTER_DASH_DASH
 62
           2
100
AcDbCircle
 10
-133.056323355789
 20
-1409.922317584273
 40
44.0
100
AcDbArc
 50
112.268435860042
 51
114.273343950561
  0
ARC
  5
2AF
100
AcDbEntity
  8
1
  6
CENTER_DASH_DASH
 62
           2
100
AcDbCircle
 10
-133.056323355789
 20
-1409.922317584273
 40
44.0
100
AcDbArc
 50
117.268435860041
 51
119.27334395056
  0
ARC
  5
2AE
100
AcDbEntity
  8
1
  6
CENTER_DASH_DASH
 62
           2
100
AcDbCircle
 10
-133.056323355789
 20
-1409.922317584273
 40
44.000000000001
100
AcDbArc
 50
122.268435860041
 51
124.273343950559
  0
ARC
  5
2AD
100
AcDbEntity
  8
1
  6
CENTER_DASH_DASH
 62
           2
100
AcDbCircle
 10
-136.002556163259
 20
-1342.360542513765
 40
44.0
100
AcDbArc
 50
-104.279401059912
 51
-103.032901747176
  0
ARC
  5
2AC
100
AcDbEntity
  8
1
  6
CENTER_DASH_DASH
 62
           2
100
AcDbCircle
 10
-136.002556163259
 20
-1342.360542513765
 40
44.0
100
AcDbArc
 50
-109.279401059911
 51
-107.274492969392
  0
ARC
  5
2AB
100
AcDbEntity
  8
1
  6
CENTER_DASH_DASH
 62
           2
100
AcDbCircle
 10
-136.002556163259
 20
-1342.360542513765
 40
44.0
100
AcDbArc
 50
-114.279401059912
 51
-112.274492969392
  0
ARC
  5
2AA
100
AcDbEntity
  8
1
  6
CENTER_DASH_DASH
 62
           2
100
AcDbCircle
 10
-136.002556163259
 20
-1342.360542513765
 40
43.999999999992
100
AcDbArc
 50
-119.279401059913
 51
-117.274492969393
  0
ARC
  5
2A9
100
AcDbEntity
  8
1
  6
CENTER_DASH_DASH
 62
           2
100
AcDbCircle
 10
-161.071877551119
 20
-1377.29889225202
 40
1.150000000001
100
AcDbArc
 50
53.270889905275
 51
-141.644067698725
  0
ARC
  5
2A8
100
AcDbEntity
  8
1
  6
CENTER_DASH_DASH
 62
           2
100
AcDbCircle
 10
-158.776326444659
 20
-1374.222437456903
 40
1.150000000001
100
AcDbArc
 50
-126.7291100947
 51
119.565011529751
  0
ARC
  5
2A7
100
AcDbEntity
  8
1
  6
CENTER_DASH_DASH
 62
           2
100
AcDbCircle
 10
-158.776326444659
 20
-1374.222437456903
 40
1.15
100
AcDbArc
 50
119.565011529751
 51
-126.7291100947
  0
LINE
  5
2A6
100
AcDbEntity
  8
1
  6
CENTER_DASH_DASH
 62
           2
100
AcDbLine
 10
-155.793207409301
 20
-1378.01251881487
 11
-169.705014728192
 21
-1378.01251881487
  0
LINE
  5
2A5
100
AcDbEntity
  8
1
  6
CENTER_DASH_DASH
 62
           2
100
AcDbLine
 10
-155.770668641187
 20
-1378.812201254298
 11
-169.705014728192
 21
-1378.812201254298
  0
LINE
  5
2A4
100
AcDbEntity
  8
1
  6
CENTER_DASH_DASH
 62
           2
100
AcDbLine
 10
-159.464063734064
 20
-1375.144130150138
 11
-160.384140261713
 21
-1376.377199558785
  0
LINE
  5
2A3
100
AcDbEntity
  8
1
  6
CENTER_DASH_DASH
 62
           2
100
AcDbLine
 10
-159.722475796805
 20
-1378.812201254298
 11
-159.457957212748
 21
-1379.108850012345
  0
LINE
  5
2A2
100
AcDbEntity
  8
1
  6
CENTER_DASH_DASH
 62
           2
100
AcDbLine
 10
-159.457957212748
 20
-1379.108850012345
 11
-159.282594182626
 21
-1379.305513794128
  0
ENDBLK
  5
2BE
100
AcDbEntity
  8
0
100
AcDbBlockEnd
  0
BLOCK
  5
50
100
AcDbEntity
  8
0
100
AcDbBlockBegin
  2
STD_01_MI__19
 70
           0
 10
0.0
 20
0.0
 30
0.0
  3
STD_01_MI__19
  1

  0
ARC
  5
313
100
AcDbEntity
  8
1
  6
CENTER_DASH_DASH
 62
           2
100
AcDbCircle
 10
-177.220630199253
 20
-1354.912360034583
 40
1.0
100
AcDbArc
 50
89.999999999954
 51
180.0
  0
ARC
  5
312
100
AcDbEntity
  8
1
  6
CENTER_DASH_DASH
 62
           2
100
AcDbCircle
 10
-164.220630199252
 20
-1381.912360034583
 40
1.0
100
AcDbArc
 50
-90.0
 51
0.0
  0
ARC
  5
311
100
AcDbEntity
  8
1
  6
CENTER_DASH_DASH
 62
           2
100
AcDbCircle
 10
-177.220630199252
 20
-1381.912360034583
 40
1.0
100
AcDbArc
 50
180.0
 51
-90.0
  0
ARC
  5
310
100
AcDbEntity
  8
1
  6
CENTER_DASH_DASH
 62
           2
100
AcDbCircle
 10
-164.220630199252
 20
-1354.912360034583
 40
0.999999999999
100
AcDbArc
 50
0.0
 51
90.000000000045
  0
ARC
  5
30F
100
AcDbEntity
  8
1
  6
CENTER_DASH_DASH
 62
           2
100
AcDbCircle
 10
-169.716284112249
 20
-1378.412360034583
 40
1.5
100
AcDbArc
 50
90.0
 51
-15.466009953426
  0
ARC
  5
30E
100
AcDbEntity
  8
1
  6
CENTER_DASH_DASH
 62
           2
100
AcDbCircle
 10
-169.716284112249
 20
-1378.412360034583
 40
1.5
100
AcDbArc
 50
15.466009953418
 51
90.0
  0
ARC
  5
30D
100
AcDbEntity
  8
1
  6
CENTER_DASH_DASH
 62
           2
100
AcDbCircle
 10
-170.720630199252
 20
-1336.912360034583
 40
18.0
100
AcDbArc
 50
-109.188136453719
 51
-90.0
  0
ARC
  5
30C
100
AcDbEntity
  8
1
  6
CENTER_DASH_DASH
 62
           2
100
AcDbCircle
 10
-170.720630199252
 20
-1399.912360034583
 40
18.0
100
AcDbArc
 50
70.81186354628
 51
109.188136453719
  0
ARC
  5
30B
100
AcDbEntity
  8
1
  6
CENTER_DASH_DASH
 62
           2
100
AcDbCircle
 10
-170.720630199252
 20
-1336.912360034583
 40
18.0
100
AcDbArc
 50
-90.0
 51
-70.81186354628
  0
ARC
  5
30A
100
AcDbEntity
  8
1
  6
CENTER_DASH_DASH
 62
           2
100
AcDbCircle
 10
-162.71017992169
 20
-1367.188999812532
 40
0.511144953641
100
AcDbArc
 50
177.012513428998
 51
-116.181172236744
  0
ARC
  5
309
100
AcDbEntity
  8
1
  6
CENTER_DASH_DASH
 62
           2
100
AcDbCircle
 10
-162.720630199253
 20
-1368.412360034583
 40
0.5
100
AcDbArc
 50
0.0
 51
66.806314334305
  0
ARC
  5
308
100
AcDbEntity
  8
1
  6
CENTER_DASH_DASH
 62
           2
100
AcDbCircle
 10
-162.720630199253
 20
-1368.412360034583
 40
0.5
100
AcDbArc
 50
-66.806314334316
 51
0.0
  0
ARC
  5
307
100
AcDbEntity
  8
1
  6
CENTER_DASH_DASH
 62
           2
100
AcDbCircle
 10
-162.71017992169
 20
-1369.635720256634
 40
0.511144953642
100
AcDbArc
 50
116.181172236744
 51
-177.012513429023
  0
LINE
  5
306
100
AcDbEntity
  8
1
  6
CENTER_DASH_DASH
 62
           2
100
AcDbLine
 10
-168.470630199252
 20
-1374.912360034583
 11
-169.479994146259
 21
-1376.931087928597
  0
LINE
  5
305
100
AcDbEntity
  8
1
  6
CENTER_DASH_DASH
 62
           2
100
AcDbLine
 10
-195.920630199247
 20
-1373.862360034583
 11
-195.720630199247
 21
-1373.862360034583
  0
LINE
  5
304
100
AcDbEntity
  8
1
  6
CENTER_DASH_DASH
 62
           2
100
AcDbLine
 10
-195.920630199247
 20
-1377.962360034583
 11
-195.720630199247
 21
-1377.962360034583
  0
LINE
  5
303
100
AcDbEntity
  8
1
  6
CENTER_DASH_DASH
 62
           2
100
AcDbLine
 10
-195.320630199245
 20
-1373.862360034583
 11
-195.320630199245
 21
-1377.962360034583
  0
LINE
  5
302
100
AcDbEntity
  8
1
  6
CENTER_DASH_DASH
 62
           2
100
AcDbLine
 10
-195.120630199247
 20
-1377.962360034583
 11
-195.320630199245
 21
-1377.962360034583
  0
LINE
  5
301
100
AcDbEntity
  8
1
  6
CENTER_DASH_DASH
 62
           2
100
AcDbLine
 10
-195.120630199247
 20
-1373.862360034583
 11
-195.320630199245
 21
-1373.862360034583
  0
LINE
  5
300
100
AcDbEntity
  8
1
  6
CENTER_DASH_DASH
 62
           2
100
AcDbLine
 10
-192.720630199247
 20
-1372.812360034583
 11
-192.720630199247
 21
-1379.012360034583
  0
LINE
  5
2FF
100
AcDbEntity
  8
1
  6
CENTER_DASH_DASH
 62
           2
100
AcDbLine
 10
-195.120630199247
 20
-1372.812360034583
 11
-192.720630199247
 21
-1372.812360034583
  0
LINE
  5
2FE
100
AcDbEntity
  8
1
  6
CENTER_DASH_DASH
 62
           2
100
AcDbLine
 10
-195.120630199247
 20
-1379.012360034583
 11
-192.720630199247
 21
-1379.012360034583
  0
LINE
  5
2FD
100
AcDbEntity
  8
1
  6
CENTER_DASH_DASH
 62
           2
100
AcDbLine
 10
-195.720630199247
 20
-1373.862360034583
 11
-195.320630199245
 21
-1373.862360034583
  0
LINE
  5
2FC
100
AcDbEntity
  8
1
  6
CENTER_DASH_DASH
 62
           2
100
AcDbLine
 10
-195.720630199247
 20
-1377.962360034583
 11
-195.320630199245
 21
-1377.962360034583
  0
LINE
  5
2FB
100
AcDbEntity
  8
1
  6
CENTER_DASH_DASH
 62
           2
100
AcDbLine
 10
-195.120630199247
 20
-1373.862360034583
 11
-195.120630199247
 21
-1377.962360034583
  0
LINE
  5
2FA
100
AcDbEntity
  8
1
  6
CENTER_DASH_DASH
 62
           2
100
AcDbLine
 10
-195.920630199247
 20
-1378.812360034583
 11
-195.720630199247
 21
-1379.012360034583
  0
LINE
  5
2F9
100
AcDbEntity
  8
1
  6
CENTER_DASH_DASH
 62
           2
100
AcDbLine
 10
-195.920630199247
 20
-1373.012360034583
 11
-195.920630199247
 21
-1378.812360034583
  0
LINE
  5
2F8
100
AcDbEntity
  8
1
  6
CENTER_DASH_DASH
 62
           2
100
AcDbLine
 10
-195.720630199247
 20
-1372.812360034583
 11
-195.920630199247
 21
-1373.012360034583
  0
LINE
  5
2F7
100
AcDbEntity
  8
1
  6
CENTER_DASH_DASH
 62
           2
100
AcDbLine
 10
-192.720630199247
 20
-1372.912360034583
 11
-192.720630199247
 21
-1378.912360034583
  0
LINE
  5
2F6
100
AcDbEntity
  8
1
  6
CENTER_DASH_DASH
 62
           2
100
AcDbLine
 10
-195.920630199247
 20
-1358.862360034583
 11
-195.720630199247
 21
-1358.862360034583
  0
LINE
  5
2F5
100
AcDbEntity
  8
1
  6
CENTER_DASH_DASH
 62
           2
100
AcDbLine
 10
-195.920630199247
 20
-1362.962360034583
 11
-195.720630199247
 21
-1362.962360034583
  0
LINE
  5
2F4
100
AcDbEntity
  8
1
  6
CENTER_DASH_DASH
 62
           2
100
AcDbLine
 10
-195.320630199245
 20
-1358.862360034583
 11
-195.320630199245
 21
-1362.962360034583
  0
LINE
  5
2F3
100
AcDbEntity
  8
1
  6
CENTER_DASH_DASH
 62
           2
100
AcDbLine
 10
-195.120630199247
 20
-1362.962360034583
 11
-195.320630199245
 21
-1362.962360034583
  0
LINE
  5
2F2
100
AcDbEntity
  8
1
  6
CENTER_DASH_DASH
 62
           2
100
AcDbLine
 10
-195.120630199247
 20
-1358.862360034583
 11
-195.320630199245
 21
-1358.862360034583
  0
LINE
  5
2F1
100
AcDbEntity
  8
1
  6
CENTER_DASH_DASH
 62
           2
100
AcDbLine
 10
-192.720630199247
 20
-1357.812360034583
 11
-192.720630199247
 21
-1364.012360034583
  0
LINE
  5
2F0
100
AcDbEntity
  8
1
  6
CENTER_DASH_DASH
 62
           2
100
AcDbLine
 10
-195.120630199247
 20
-1357.812360034583
 11
-192.720630199247
 21
-1357.812360034583
  0
LINE
  5
2EF
100
AcDbEntity
  8
1
  6
CENTER_DASH_DASH
 62
           2
100
AcDbLine
 10
-195.120630199247
 20
-1364.012360034583
 11
-192.720630199247
 21
-1364.012360034583
  0
LINE
  5
2EE
100
AcDbEntity
  8
1
  6
CENTER_DASH_DASH
 62
           2
100
AcDbLine
 10
-195.720630199247
 20
-1358.862360034583
 11
-195.320630199245
 21
-1358.862360034583
  0
LINE
  5
2ED
100
AcDbEntity
  8
1
  6
CENTER_DASH_DASH
 62
           2
100
AcDbLine
 10
-195.720630199247
 20
-1358.862360034583
 11
-195.720630199247
 21
-1357.812360034583
  0
LINE
  5
2EC
100
AcDbEntity
  8
1
  6
CENTER_DASH_DASH
 62
           2
100
AcDbLine
 10
-195.720630199247
 20
-1362.962360034583
 11
-195.320630199245
 21
-1362.962360034583
  0
LINE
  5
2EB
100
AcDbEntity
  8
1
  6
CENTER_DASH_DASH
 62
           2
100
AcDbLine
 10
-195.120630199247
 20
-1358.862360034583
 11
-195.120630199247
 21
-1362.962360034583
  0
LINE
  5
2EA
100
AcDbEntity
  8
1
  6
CENTER_DASH_DASH
 62
           2
100
AcDbLine
 10
-195.920630199247
 20
-1363.812360034583
 11
-195.720630199247
 21
-1364.012360034583
  0
LINE
  5
2E9
100
AcDbEntity
  8
1
  6
CENTER_DASH_DASH
 62
           2
100
AcDbLine
 10
-195.720630199247
 20
-1373.862360034583
 11
-195.720630199247
 21
-1364.012360034583
  0
LINE
  5
2E8
100
AcDbEntity
  8
1
  6
CENTER_DASH_DASH
 62
           2
100
AcDbLine
 10
-195.920630199247
 20
-1358.012360034583
 11
-195.920630199247
 21
-1363.812360034583
  0
LINE
  5
2E7
100
AcDbEntity
  8
1
  6
CENTER_DASH_DASH
 62
           2
100
AcDbLine
 10
-195.720630199247
 20
-1357.812360034583
 11
-195.920630199247
 21
-1358.012360034583
  0
LINE
  5
2E6
100
AcDbEntity
  8
1
  6
CENTER_DASH_DASH
 62
           2
100
AcDbLine
 10
-195.720630199247
 20
-1379.012360034583
 11
-195.720630199247
 21
-1377.962360034583
  0
LINE
  5
2E5
100
AcDbEntity
  8
1
  6
CENTER_DASH_DASH
 62
           2
100
AcDbLine
 10
-195.120630199247
 20
-1353.412360034581
 11
-195.720630199247
 21
-1353.412360034583
  0
LINE
  5
2E4
100
AcDbEntity
  8
1
  6
CENTER_DASH_DASH
 62
           4
100
AcDbLine
 10
-162.220630199253
 20
-1368.412360034583
 11
-160.53483009406
 21
-1368.412360034583
  0
LINE
  5
2E3
100
AcDbEntity
  8
1
  6
CENTER_DASH_DASH
 62
           2
100
AcDbLine
 10
-195.720630199247
 20
-1383.412360034583
 11
-195.120630199247
 21
-1383.412360034584
  0
LINE
  5
2E2
100
AcDbEntity
  8
1
  6
CENTER_DASH_DASH
 62
           4
100
AcDbLine
 10
-191.273026522493
 20
-1375.912360034583
 11
-198.115325418702
 21
-1375.912360034583
  0
LINE
  5
2E1
100
AcDbEntity
  8
1
  6
CENTER_DASH_DASH
 62
           2
100
AcDbLine
 10
-195.120630199247
 20
-1372.812360034583
 11
-195.120630199247
 21
-1373.862360034583
  0
LINE
  5
2E0
100
AcDbEntity
  8
1
  6
CENTER_DASH_DASH
 62
           2
100
AcDbLine
 10
-195.120630199247
 20
-1357.812360034583
 11
-195.120630199247
 21
-1364.012360034583
  0
LINE
  5
2DF
100
AcDbEntity
  8
1
  6
CENTER_DASH_DASH
 62
           2
100
AcDbLine
 10
-192.720630199247
 20
-1357.912360034583
 11
-192.720630199247
 21
-1363.912360034583
  0
LINE
  5
2DE
100
AcDbEntity
  8
1
  6
CENTER_DASH_DASH
 62
           4
100
AcDbLine
 10
-198.115325418702
 20
-1360.912360034583
 11
-191.273026522493
 21
-1360.912360034583
  0
LINE
  5
2DD
100
AcDbEntity
  8
1
  6
CENTER_DASH_DASH
 62
           2
100
AcDbLine
 10
-183.720630199252
 20
-1380.412360034583
 11
-195.120630199247
 21
-1383.412360034584
  0
LINE
  5
2DC
100
AcDbEntity
  8
1
  6
CENTER_DASH_DASH
 62
           2
100
AcDbLine
 10
-183.720630199252
 20
-1356.412360034583
 11
-195.120630199247
 21
-1353.412360034583
  0
LINE
  5
2DB
100
AcDbEntity
  8
1
  6
CENTER_DASH_DASH
 62
           2
100
AcDbLine
 10
-195.720630199247
 20
-1373.862360034583
 11
-195.720630199247
 21
-1362.962360034583
  0
LINE
  5
2DA
100
AcDbEntity
  8
1
  6
CENTER_DASH_DASH
 62
           2
100
AcDbLine
 10
-195.720630199247
 20
-1357.812360034583
 11
-195.720630199247
 21
-1353.412360034583
  0
LINE
  5
2D9
100
AcDbEntity
  8
1
  6
CENTER_DASH_DASH
 62
           4
100
AcDbLine
 10
-170.720630199252
 20
-1351.993797894595
 11
-170.720630199252
 21
-1385.345042772265
  0
LINE
  5
2D8
100
AcDbEntity
  8
1
  6
CENTER_DASH_DASH
 62
           2
100
AcDbLine
 10
-170.720630199252
 20
-1357.412360034583
 11
-168.470630199252
 21
-1361.912360034583
  0
LINE
  5
2D7
100
AcDbEntity
  8
1
  6
CENTER_DASH_DASH
 62
           2
100
AcDbLine
 10
-172.970630199252
 20
-1361.912360034583
 11
-170.720630199252
 21
-1357.412360034583
  0
LINE
  5
2D6
100
AcDbEntity
  8
1
  6
CENTER_DASH_DASH
 62
           2
100
AcDbLine
 10
-168.470630199252
 20
-1361.912360034583
 11
-172.970630199252
 21
-1361.912360034583
  0
LINE
  5
2D5
100
AcDbEntity
  8
1
  6
CENTER_DASH_DASH
 62
           2
100
AcDbLine
 10
-178.220630199252
 20
-1381.912360034583
 11
-178.220630199253
 21
-1354.912360034583
  0
LINE
  5
2D4
100
AcDbEntity
  8
1
  6
CENTER_DASH_DASH
 62
           2
100
AcDbLine
 10
-164.220630199253
 20
-1353.912360034583
 11
-164.804550416153
 21
-1353.912360034583
  0
LINE
  5
2D3
100
AcDbEntity
  8
1
  6
CENTER_DASH_DASH
 62
           2
100
AcDbLine
 10
-177.220630199252
 20
-1353.912360034583
 11
-177.146923185356
 21
-1353.912360034583
  0
LINE
  5
2D2
100
AcDbEntity
  8
1
  6
CENTER_DASH_DASH
 62
           2
100
AcDbLine
 10
-176.636709982352
 20
-1353.912360034583
 11
-177.220630199252
 21
-1353.912360034583
  0
LINE
  5
2D1
100
AcDbEntity
  8
1
  6
CENTER_DASH_DASH
 62
           2
100
AcDbLine
 10
-176.636709982352
 20
-1382.912360034583
 11
-177.220630199252
 21
-1382.912360034583
  0
LINE
  5
2D0
100
AcDbEntity
  8
1
  6
CENTER_DASH_DASH
 62
           2
100
AcDbLine
 10
-178.220630199252
 20
-1367.162360034583
 11
-178.220630199253
 21
-1354.912360034583
  0
LINE
  5
2CF
100
AcDbEntity
  8
1
  6
CENTER_DASH_DASH
 62
           2
100
AcDbLine
 10
-163.220630199252
 20
-1378.812360034583
 11
-163.220630199253
 21
-1381.912360034583
  0
LINE
  5
2CE
100
AcDbEntity
  8
1
  6
CENTER_DASH_DASH
 62
           2
100
AcDbLine
 10
-178.220630199252
 20
-1369.662360034583
 11
-163.220630199252
 21
-1369.662360034583
  0
LINE
  5
2CD
100
AcDbEntity
  8
1
  6
CENTER_DASH_DASH
 62
           2
100
AcDbLine
 10
-178.220630199252
 20
-1381.912360034583
 11
-178.220630199252
 21
-1369.662360034583
  0
LINE
  5
2CC
100
AcDbEntity
  8
1
  6
CENTER_DASH_DASH
 62
           2
100
AcDbLine
 10
-178.220630199252
 20
-1367.162360034583
 11
-163.220630199252
 21
-1367.162360034583
  0
LINE
  5
2CB
100
AcDbEntity
  8
1
  6
CENTER_DASH_DASH
 62
           2
100
AcDbLine
 10
-178.220630199252
 20
-1369.662360034583
 11
-178.220630199252
 21
-1367.162360034583
  0
LINE
  5
2CA
100
AcDbEntity
  8
1
  6
CENTER_DASH_DASH
 62
           2
100
AcDbLine
 10
-163.220630199253
 20
-1354.912360034583
 11
-163.220630199252
 21
-1367.162360034583
  0
LINE
  5
2C9
100
AcDbEntity
  8
1
  6
CENTER_DASH_DASH
 62
           2
100
AcDbLine
 10
-164.220630199252
 20
-1382.912360034583
 11
-164.804550416153
 21
-1382.912360034583
  0
LINE
  5
2C8
100
AcDbEntity
  8
1
  6
CENTER_DASH_DASH
 62
           2
100
AcDbLine
 10
-162.935702689686
 20
-1367.647703033307
 11
-162.523709892733
 21
-1367.95277066038
  0
LINE
  5
2C7
100
AcDbEntity
  8
1
  6
CENTER_DASH_DASH
 62
           2
100
AcDbLine
 10
-162.523709892733
 20
-1368.871949408786
 11
-162.935702689686
 21
-1369.177017035859
  0
LINE
  5
2C6
100
AcDbEntity
  8
1
  6
CENTER_DASH_DASH
 62
           2
100
AcDbLine
 10
-171.220630199252
 20
-1378.412360034583
 11
-172.970630199252
 21
-1374.912360034583
  0
LINE
  5
2C5
100
AcDbEntity
  8
1
  6
CENTER_DASH_DASH
 62
           2
100
AcDbLine
 10
-172.970630199252
 20
-1374.912360034583
 11
-168.470630199252
 21
-1374.912360034583
  0
LINE
  5
2C4
100
AcDbEntity
  8
1
  6
CENTER_DASH_DASH
 62
           2
100
AcDbLine
 10
-183.720630199252
 20
-1380.412360034583
 11
-178.220630199252
 21
-1380.412360034583
  0
LINE
  5
2C3
100
AcDbEntity
  8
1
  6
CENTER_DASH_DASH
 62
           2
100
AcDbLine
 10
-183.720630199252
 20
-1356.412360034583
 11
-178.220630199252
 21
-1356.412360034583
  0
LINE
  5
2C2
100
AcDbEntity
  8
1
  6
CENTER_DASH_DASH
 62
           2
100
AcDbLine
 10
-163.220630199252
 20
-1369.662360034583
 11
-163.220630199252
 21
-1378.012360844122
  0
LINE
  5
2C1
100
AcDbEntity
  8
1
  6
CENTER_DASH_DASH
 62
           2
100
AcDbLine
 10
-195.720630199247
 20
-1383.412360034583
 11
-195.720630199247
 21
-1379.012360034583
  0
LINE
  5
2C0
100
AcDbEntity
  8
1
  6
CENTER_DASH_DASH
 62
           2
100
AcDbLine
 10
-195.120630199247
 20
-1377.962360034583
 11
-195.120630199247
 21
-1379.012360034583
  0
LINE
  5
2BF
100
AcDbEntity
  8
1
  6
CENTER_DASH_DASH
 62
           4
100
AcDbLine
 10
-196.785752172783
 20
-1368.412360034583
 11
-162.220630199253
 21
-1368.412360034583
  0
INSERT
  5
51
100
AcDbEntity
  8
0
100
AcDbBlockReference
  2
STD_01_MI__18
 10
0.0
 20
0.0
  0
ENDBLK
  5
314
100
AcDbEntity
  8
0
100
AcDbBlockEnd
  0
BLOCK
  5
53
100
AcDbEntity
  8
0
100
AcDbBlockBegin
  2
STD_01_MI__20
 70
           0
 10
0.0
 20
0.0
 30
0.0
  3
STD_01_MI__20
  1

  0
SPLINE
  5
330
100
AcDbEntity
  8
1
  6
CENTER_DASH_DASH
 62
           2
100
AcDbSpline
210
0.0
220
0.0
230
1.0
 70
           0
 71
           4
 72
           8
 73
           4
 74
           3
 42
0.00000000001
 43
0.00000000001
 44
0.00000000001
 40
0.0
 40
0.0
 40
0.0
 40
0.0
 40
6.8905403159652749
 40
6.8905403159652749
 40
6.8905403159652749
 40
6.8905403159652749
 10
-95.183655705062449
 20
-1370.185853669368
 30
0.0
 10
-93.107289484021351
 20
-1371.1012923443679
 30
0.0
 10
-95.909285776857132
 20
-1371.9052835923701
 30
0.0
 10
-94.611491581844348
 20
-1373.0130175723241
 30
0.0
 11
-95.183655705062449
 21
-1370.185853669368
 31
0.0
 11
-94.605609133692781
 21
-1371.5273248814883
 31
0.0
 11
-94.611491581844348
 21
-1373.0130175723241
 31
0.0
  0
SPLINE
  5
32F
100
AcDbEntity
  8
1
  6
CENTER_DASH_DASH
 62
           2
100
AcDbSpline
210
0.0
220
0.0
230
1.0
 70
           0
 71
           4
 72
           9
 73
           5
 74
           5
 42
0.00000000001
 43
0.00000000001
 44
0.00000000001
 40
0.0
 40
0.0
 40
0.0
 40
0.0
 40
1.606522385999603
 40
3.5900264062226679
 40
3.5900264062226679
 40
3.5900264062226679
 40
3.5900264062226679
 10
-95.128355519183344
 20
-1387.9644095732781
 30
0.0
 10
-94.663339748000055
 20
-1387.987838396135
 30
0.0
 10
-94.079436142774
 20
-1388.9680157711059
 30
0.0
 10
-94.987028305605236
 20
-1389.668382763668
 30
0.0
 10
-94.194567690792098
 20
-1389.9380974832859
 30
0.0
 11
-95.128355519183344
 21
-1387.9644095732781
 31
0.0
 11
-94.595492144703925
 21
-1388.2520465939299
 31
0.0
 11
-94.439426699133392
 21
-1388.8090564954748
 31
0.0
 11
-94.631477408619105
 21
-1389.4495729781033
 31
0.0
 11
-94.194567690792098
 21
-1389.9380974832859
 31
0.0
  0
CIRCLE
  5
32E
100
AcDbEntity
  8
1
  6
CENTER_DASH_DASH
 62
           2
100
AcDbCircle
 10
-82.057039748832
 20
-1376.66088023903
 40
1.150000000001
  0
CIRCLE
  5
32D
100
AcDbEntity
  8
1
  6
CENTER_DASH_DASH
 62
           2
100
AcDbCircle
 10
-85.437489350772
 20
-1374.842449740632
 40
1.150000000001
  0
CIRCLE
  5
32C
100
AcDbEntity
  8
1
  6
CENTER_DASH_DASH
 62
           2
100
AcDbCircle
 10
-88.963561982115
 20
-1373.325564515159
 40
1.150000000001
  0
CIRCLE
  5
32B
100
AcDbEntity
  8
1
  6
CENTER_DASH_DASH
 62
           2
100
AcDbCircle
 10
-92.608422101033
 20
-1372.121768975097
 40
1.15
  0
CIRCLE
  5
32A
100
AcDbEntity
  8
1
  6
CENTER_DASH_DASH
 62
           2
100
AcDbCircle
 10
-85.007269114435
 20
-1384.708079762972
 40
1.149999999999
  0
CIRCLE
  5
329
100
AcDbEntity
  8
1
  6
CENTER_DASH_DASH
 62
           2
100
AcDbCircle
 10
-88.387910935596
 20
-1386.526152881903
 40
1.15
  0
CIRCLE
  5
328
100
AcDbEntity
  8
1
  6
CENTER_DASH_DASH
 62
           2
100
AcDbCircle
 10
-91.914143907033
 20
-1388.042665334838
 40
1.15
  0
ARC
  5
327
100
AcDbEntity
  8
1
  6
CENTER_DASH_DASH
 62
           2
100
AcDbCircle
 10
-81.797947169098
 20
-1382.602282612263
 40
1.150000000001
100
AcDbArc
 50
-60.434988470261
 51
53.270889905304
  0
ARC
  5
326
100
AcDbEntity
  8
1
  6
CENTER_DASH_DASH
 62
           2
100
AcDbCircle
 10
-81.797947169098
 20
-1382.602282612263
 40
1.150000000001
100
AcDbArc
 50
53.270889905304
 51
-60.434988470261
  0
ARC
  5
325
100
AcDbEntity
  8
1
  6
CENTER_DASH_DASH
 62
           2
100
AcDbCircle
 10
-79.502396062637
 20
-1379.525827817146
 40
1.150000000002
100
AcDbArc
 50
-126.729110094698
 51
38.35593230124
  0
ARC
  5
324
100
AcDbEntity
  8
1
  6
CENTER_DASH_DASH
 62
           2
100
AcDbCircle
 10
-104.571717450498
 20
-1414.464177555401
 40
43.999999999992
100
AcDbArc
 50
60.720598940087
 51
62.725507030607
  0
ARC
  5
323
100
AcDbEntity
  8
1
  6
CENTER_DASH_DASH
 62
           2
100
AcDbCircle
 10
-104.571717450498
 20
-1414.464177555401
 40
44.0
100
AcDbArc
 50
65.720598940087
 51
67.725507030607
  0
ARC
  5
322
100
AcDbEntity
  8
1
  6
CENTER_DASH_DASH
 62
           2
100
AcDbCircle
 10
-104.571717450498
 20
-1414.464177555401
 40
43.999999999999
100
AcDbArc
 50
70.720598940089
 51
72.725507030608
  0
ARC
  5
321
100
AcDbEntity
  8
1
  6
CENTER_DASH_DASH
 62
           2
100
AcDbCircle
 10
-104.571717450498
 20
-1414.464177555401
 40
43.999999999999
100
AcDbArc
 50
75.720598940088
 51
76.967098252823
  0
ARC
  5
320
100
AcDbEntity
  8
1
  6
CENTER_DASH_DASH
 62
           2
100
AcDbCircle
 10
-107.517950257967
 20
-1346.902402484893
 40
44.000000000001
100
AcDbArc
 50
-57.731564139959
 51
-55.726656049441
  0
ARC
  5
31F
100
AcDbEntity
  8
1
  6
CENTER_DASH_DASH
 62
           2
100
AcDbCircle
 10
-107.517950257967
 20
-1346.902402484893
 40
44.000000000001
100
AcDbArc
 50
-62.731564139959
 51
-60.726656049439
  0
ARC
  5
31E
100
AcDbEntity
  8
1
  6
CENTER_DASH_DASH
 62
           2
100
AcDbCircle
 10
-107.517950257967
 20
-1346.902402484893
 40
44.0
100
AcDbArc
 50
-67.731564139958
 51
-65.726656049439
  0
ARC
  5
31D
100
AcDbEntity
  8
1
  6
CENTER_DASH_DASH
 62
           2
100
AcDbCircle
 10
-107.517950257967
 20
-1346.902402484893
 40
44.0
100
AcDbArc
 50
-72.731564139958
 51
-70.726656049439
  0
ARC
  5
31C
100
AcDbEntity
  8
1
  6
CENTER_DASH_DASH
 62
           2
100
AcDbCircle
 10
-79.502396062637
 20
-1379.525827817146
 40
1.150000000001
100
AcDbArc
 50
141.644067698753
 51
-126.729110094698
  0
ARC
  5
31B
100
AcDbEntity
  8
1
  6
CENTER_DASH_DASH
 62
           2
100
AcDbCircle
 10
-84.792335588513
 20
-1378.412360034583
 40
0.4
100
AcDbArc
 50
91.614433982999
 51
-88.385566016997
  0
ARC
  5
31A
100
AcDbEntity
  8
1
  6
CENTER_DASH_DASH
 62
           2
100
AcDbCircle
 10
-70.857989501508
 20
-1378.412360034583
 40
0.399999999999
100
AcDbArc
 50
-91.614433983003
 51
91.614433982999
  0
LINE
  5
319
100
AcDbEntity
  8
1
  6
CENTER_DASH_DASH
 62
           2
100
AcDbLine
 10
-81.116316401009
 20
-1377.715870056822
 11
-81.291679431131
 21
-1377.519206275038
  0
LINE
  5
318
100
AcDbEntity
  8
1
  6
CENTER_DASH_DASH
 62
           2
100
AcDbLine
 10
-80.851797816952
 20
-1378.012518814868
 11
-81.116316401009
 21
-1377.715870056822
  0
LINE
  5
317
100
AcDbEntity
  8
1
  6
CENTER_DASH_DASH
 62
           2
100
AcDbLine
 10
-81.110209879693
 20
-1381.680589919028
 11
-80.190133352044
 21
-1380.447520510382
  0
LINE
  5
316
100
AcDbEntity
  8
1
  6
CENTER_DASH_DASH
 62
           2
100
AcDbLine
 10
-84.80360497257
 20
-1378.012518814868
 11
-70.869258885565
 21
-1378.012518814868
  0
LINE
  5
315
100
AcDbEntity
  8
1
  6
CENTER_DASH_DASH
 62
           2
100
AcDbLine
 10
-84.781066204456
 20
-1378.812201254297
 11
-70.869258885565
 21
-1378.812201254297
  0
ENDBLK
  5
331
100
AcDbEntity
  8
0
100
AcDbBlockEnd
  0
BLOCK
  5
55
100
AcDbEntity
  8
0
100
AcDbBlockBegin
  2
STD_01_MI__21
 70
           0
 10
0.0
 20
0.0
 30
0.0
  3
STD_01_MI__21
  1

  0
ARC
  5
361
100
AcDbEntity
  8
1
  6
CENTER_DASH_DASH
 62
           2
100
AcDbCircle
 10
-52.357989501566
 20
-1356.412360034582
 40
3.0
100
AcDbArc
 50
0.0
 51
90.0
  0
ARC
  5
360
100
AcDbEntity
  8
1
  6
CENTER_DASH_DASH
 62
           2
100
AcDbCircle
 10
-63.707989501528
 20
-1379.016431057861
 40
1.1401754251
100
AcDbArc
 50
74.744881296955
 51
127.874983649883
  0
ARC
  5
35F
100
AcDbEntity
  8
1
  6
CENTER_DASH_DASH
 62
           2
100
AcDbCircle
 10
-63.707989501528
 20
-1372.816431057859
 40
1.140175425099
100
AcDbArc
 50
-127.874983649883
 51
-74.744881296958
  0
ARC
  5
35E
100
AcDbEntity
  8
1
  6
CENTER_DASH_DASH
 62
           2
100
AcDbCircle
 10
-63.707989501528
 20
-1357.812360034581
 40
1.1401754251
100
AcDbArc
 50
-127.874983649848
 51
-74.74488129697
  0
ARC
  5
35D
100
AcDbEntity
  8
1
  6
CENTER_DASH_DASH
 62
           2
100
AcDbCircle
 10
-63.707989501528
 20
-1364.012360034583
 40
1.140175425099
100
AcDbArc
 50
74.744881296946
 51
127.874983649939
  0
ARC
  5
35C
100
AcDbEntity
  8
1
  6
CENTER_DASH_DASH
 62
           2
100
AcDbCircle
 10
-52.357989501566
 20
-1380.412360034583
 40
3.0
100
AcDbArc
 50
-90.0
 51
0.0
  0
ARC
  5
35B
100
AcDbEntity
  8
1
  6
CENTER_DASH_DASH
 62
           2
100
AcDbCircle
 10
-76.407989501509
 20
-1381.912360034583
 40
1.0
100
AcDbArc
 50
180.0
 51
-90.0
  0
ARC
  5
35A
100
AcDbEntity
  8
1
  6
CENTER_DASH_DASH
 62
           2
100
AcDbCircle
 10
-76.407989501509
 20
-1354.912360034583
 40
1.0
100
AcDbArc
 50
90.0
 51
180.0
  0
ARC
  5
359
100
AcDbEntity
  8
1
  6
CENTER_DASH_DASH
 62
           2
100
AcDbCircle
 10
-65.407989501509
 20
-1354.912360034583
 40
1.0
100
AcDbArc
 50
0.0
 51
90.0
  0
ARC
  5
358
100
AcDbEntity
  8
1
  6
CENTER_DASH_DASH
 62
           2
100
AcDbCircle
 10
-65.407989501509
 20
-1381.912360034583
 40
0.999999999999
100
AcDbArc
 50
-90.0
 51
0.0
  0
ARC
  5
357
100
AcDbEntity
  8
1
  6
CENTER_DASH_DASH
 62
           2
100
AcDbCircle
 10
-61.057989501509
 20
-1360.908289011305
 40
3.100000000001
100
AcDbArc
 50
0.0
 51
138.601645479823
  0
ARC
  5
356
100
AcDbEntity
  8
1
  6
CENTER_DASH_DASH
 62
           2
100
AcDbCircle
 10
-61.057989501509
 20
-1360.908289011305
 40
3.099999999998
100
AcDbArc
 50
-138.601645479839
 51
0.0
  0
ARC
  5
355
100
AcDbEntity
  8
1
  6
CENTER_DASH_DASH
 62
           2
100
AcDbCircle
 10
-61.057989501509
 20
-1375.91643105786
 40
3.100000000001
100
AcDbArc
 50
0.0
 51
138.601645479808
  0
ARC
  5
354
100
AcDbEntity
  8
1
  6
CENTER_DASH_DASH
 62
           2
100
AcDbCircle
 10
-61.057989501509
 20
-1375.91643105786
 40
3.1
100
AcDbArc
 50
-138.601645479798
 51
0.0
  0
ARC
  5
353
100
AcDbEntity
  8
1
  6
CENTER_DASH_DASH
 62
           2
100
AcDbCircle
 10
-70.857989501508
 20
-1378.412360034583
 40
1.499999999999
100
AcDbArc
 50
-164.540282781981
 51
164.540282781947
  0
ARC
  5
352
100
AcDbEntity
  8
1
  6
CENTER_DASH_DASH
 62
           2
100
AcDbCircle
 10
-61.057989501509
 20
-1360.912360034583
 40
2.0
100
AcDbArc
 50
0.0
 51
90.0
  0
ARC
  5
351
100
AcDbEntity
  8
1
  6
CENTER_DASH_DASH
 62
           2
100
AcDbCircle
 10
-61.057989501509
 20
-1360.912360034583
 40
2.0
100
AcDbArc
 50
-90.0
 51
0.0
  0
ARC
  5
350
100
AcDbEntity
  8
1
  6
CENTER_DASH_DASH
 62
           2
100
AcDbCircle
 10
-61.057989501509
 20
-1375.91643105786
 40
2.0
100
AcDbArc
 50
-90.0
 51
0.0
  0
ARC
  5
34F
100
AcDbEntity
  8
1
  6
CENTER_DASH_DASH
 62
           2
100
AcDbCircle
 10
-61.057989501509
 20
-1375.91643105786
 40
2.0
100
AcDbArc
 50
0.0
 51
90.0
  0
ARC
  5
34E
100
AcDbEntity
  8
1
  6
CENTER_DASH_DASH
 62
           2
100
AcDbCircle
 10
-77.880529834585
 20
-1367.213999812532
 40
0.472543178192
100
AcDbArc
 50
-66.607491139473
 51
0.198823194686
  0
ARC
  5
34D
100
AcDbEntity
  8
1
  6
CENTER_DASH_DASH
 62
           2
100
AcDbCircle
 10
-77.907989501509
 20
-1368.412360034583
 40
0.5
100
AcDbArc
 50
113.193685665829
 51
180.0
  0
ARC
  5
34C
100
AcDbEntity
  8
1
  6
CENTER_DASH_DASH
 62
           2
100
AcDbCircle
 10
-77.907989501509
 20
-1368.412360034583
 40
0.5
100
AcDbArc
 50
180.0
 51
-113.19368566586
  0
ARC
  5
34B
100
AcDbEntity
  8
1
  6
CENTER_DASH_DASH
 62
           2
100
AcDbCircle
 10
-77.880529834585
 20
-1369.610720256633
 40
0.472543178192
100
AcDbArc
 50
-0.198823194934
 51
66.607491139393
  0
LINE
  5
34A
100
AcDbEntity
  8
1
  6
CENTER_DASH_DASH
 62
           2
100
AcDbLine
 10
-64.807989501528
 20
-1353.412360034583
 11
-52.357989501566
 21
-1353.412360034582
  0
LINE
  5
349
100
AcDbEntity
  8
1
  6
CENTER_DASH_DASH
 62
           2
100
AcDbLine
 10
-49.357989501566
 20
-1356.412360034582
 11
-49.357989501566
 21
-1380.412360034583
  0
LINE
  5
348
100
AcDbEntity
  8
1
  6
CENTER_DASH_DASH
 62
           2
100
AcDbLine
 10
-64.807989501528
 20
-1354.11236003457
 11
-64.807989501528
 21
-1353.412360034583
  0
LINE
  5
347
100
AcDbEntity
  8
1
  6
CENTER_DASH_DASH
 62
           2
100
AcDbLine
 10
-64.807989501528
 20
-1383.412360034582
 11
-52.357989501566
 21
-1383.412360034583
  0
LINE
  5
346
100
AcDbEntity
  8
1
  6
CENTER_DASH_DASH
 62
           2
100
AcDbLine
 10
-65.407989501509
 20
-1382.912360034582
 11
-65.407989501509
 21
-1383.412360034582
  0
LINE
  5
345
100
AcDbEntity
  8
1
  6
CENTER_DASH_DASH
 62
           2
100
AcDbLine
 10
-64.807989501528
 20
-1353.412360034583
 11
-65.407989501509
 21
-1353.412360034583
  0
LINE
  5
344
100
AcDbEntity
  8
1
  6
CENTER_DASH_DASH
 62
           2
100
AcDbLine
 10
-64.807989501528
 20
-1383.412360034582
 11
-65.407989501509
 21
-1383.412360034582
  0
LINE
  5
343
100
AcDbEntity
  8
1
  6
CENTER_DASH_DASH
 62
           2
100
AcDbLine
 10
-61.057989501509
 20
-1377.91643105786
 11
-63.407989501528
 21
-1377.91643105786
  0
LINE
  5
342
100
AcDbEntity
  8
1
  6
CENTER_DASH_DASH
 62
           2
100
AcDbLine
 10
-61.057989501509
 20
-1373.91643105786
 11
-63.407989501528
 21
-1373.91643105786
  0
LINE
  5
341
100
AcDbEntity
  8
1
  6
CENTER_DASH_DASH
 62
           2
100
AcDbLine
 10
-61.057989501509
 20
-1358.912360034583
 11
-63.407989501528
 21
-1358.912360034583
  0
LINE
  5
340
100
AcDbEntity
  8
1
  6
CENTER_DASH_DASH
 62
           2
100
AcDbLine
 10
-61.057989501509
 20
-1362.912360034583
 11
-63.407989501528
 21
-1362.912360034583
  0
LINE
  5
33F
100
AcDbEntity
  8
1
  6
CENTER_DASH_DASH
 62
           2
100
AcDbLine
 10
-77.407989501509
 20
-1354.912360034583
 11
-77.407989501509
 21
-1355.912360034583
  0
LINE
  5
33E
100
AcDbEntity
  8
1
  6
CENTER_DASH_DASH
 62
           2
100
AcDbLine
 10
-77.407989501509
 20
-1381.912360034583
 11
-77.407989501509
 21
-1380.912360034583
  0
LINE
  5
33D
100
AcDbEntity
  8
1
  6
CENTER_DASH_DASH
 62
           2
100
AcDbLine
 10
-65.407989501509
 20
-1382.912360034582
 11
-76.407989501509
 21
-1382.912360034582
  0
LINE
  5
33C
100
AcDbEntity
  8
1
  6
CENTER_DASH_DASH
 62
           2
100
AcDbLine
 10
-76.407989501509
 20
-1353.912360034583
 11
-65.407989501509
 21
-1353.912360034583
  0
LINE
  5
33B
100
AcDbEntity
  8
1
  6
CENTER_DASH_DASH
 62
           2
100
AcDbLine
 10
-77.407989501509
 20
-1378.012518814868
 11
-77.407989501509
 21
-1369.612360034583
  0
LINE
  5
33A
100
AcDbEntity
  8
1
  6
CENTER_DASH_DASH
 62
           2
100
AcDbLine
 10
-77.407989501509
 20
-1367.212360034584
 11
-77.407989501509
 21
-1355.912360034583
  0
LINE
  5
339
100
AcDbEntity
  8
1
  6
CENTER_DASH_DASH
 62
           2
100
AcDbLine
 10
-64.407989501509
 20
-1369.612360034583
 11
-77.407989501509
 21
-1369.612360034583
  0
LINE
  5
338
100
AcDbEntity
  8
1
  6
CENTER_DASH_DASH
 62
           2
100
AcDbLine
 10
-64.407989501509
 20
-1367.212360034584
 11
-77.407989501509
 21
-1367.212360034584
  0
LINE
  5
337
100
AcDbEntity
  8
1
  6
CENTER_DASH_DASH
 62
           2
100
AcDbLine
 10
-78.10490980803
 20
-1367.95277066038
 11
-77.692917011077
 21
-1367.647703033308
  0
LINE
  5
336
100
AcDbEntity
  8
1
  6
CENTER_DASH_DASH
 62
           2
100
AcDbLine
 10
-77.692917011077
 20
-1369.177017035858
 11
-78.10490980803
 21
-1368.871949408785
  0
LINE
  5
335
100
AcDbEntity
  8
1
  6
CENTER_DASH_DASH
 62
           2
100
AcDbLine
 10
-77.407989501509
 20
-1380.912360034583
 11
-77.407989501509
 21
-1378.812201254297
  0
LINE
  5
334
100
AcDbEntity
  8
1
  6
CENTER_DASH_DASH
 62
           2
100
AcDbLine
 10
-64.407989501509
 20
-1381.912360034583
 11
-64.407989501509
 21
-1354.912360034583
  0
LINE
  5
333
100
AcDbEntity
  8
1
  6
CENTER_DASH_DASH
 62
           2
100
AcDbLine
 10
-64.807989501528
 20
-1383.412360034582
 11
-64.807989501528
 21
-1382.712360034597
  0
LINE
  5
332
100
AcDbEntity
  8
1
  6
CENTER_DASH_DASH
 62
           2
100
AcDbLine
 10
-65.407989501509
 20
-1353.912360034583
 11
-65.407989501509
 21
-1353.412360034583
  0
INSERT
  5
56
100
AcDbEntity
  8
0
100
AcDbBlockReference
  2
STD_01_MI__20
 10
0.0
 20
0.0
  0
ENDBLK
  5
362
100
AcDbEntity
  8
0
100
AcDbBlockEnd
  0
BLOCK
  5
58
100
AcDbEntity
  8
0
100
AcDbBlockBegin
  2
M05__M_D8_MI
 70
           0
 10
0.0
 20
0.0
 30
0.0
  3
M05__M_D8_MI
  1

  0
LINE
  5
372
100
AcDbEntity
  8
1
  6
DASHED
 62
           6
100
AcDbLine
 10
30.77904980703
 20
-1327.301008752476
 11
30.77904980703
 21
-1319.301008752476
  0
LINE
  5
371
100
AcDbEntity
  8
1
  6
DASHED
 62
           6
100
AcDbLine
 10
50.77904980703
 20
-1321.301008752476
 11
32.67904980703
 21
-1321.301008752476
  0
LINE
  5
370
100
AcDbEntity
  8
1
  6
DASHED
 62
           6
100
AcDbLine
 10
50.77904980703
 20
-1321.301008752476
 11
50.77904980703
 21
-1325.301008752476
  0
LINE
  5
36F
100
AcDbEntity
  8
1
  6
DASHED
 62
           6
100
AcDbLine
 10
50.27904980703
 20
-1320.801008752476
 11
32.67904980703
 21
-1320.801008752476
  0
LINE
  5
36E
100
AcDbEntity
  8
1
  6
DASHED
 62
           6
100
AcDbLine
 10
50.27904980703
 20
-1320.801008752476
 11
50.77904980703
 21
-1321.301008752476
  0
LINE
  5
36D
100
AcDbEntity
  8
1
  6
DASHED
 62
           6
100
AcDbLine
 10
50.27904980703
 20
-1320.801008752476
 11
50.27904980703
 21
-1325.801008752476
  0
LINE
  5
36C
100
AcDbEntity
  8
1
  6
DASHED
 62
           6
100
AcDbLine
 10
50.27904980703
 20
-1325.801008752476
 11
50.77904980703
 21
-1325.301008752476
  0
LINE
  5
36B
100
AcDbEntity
  8
1
  6
DASHED
 62
           6
100
AcDbLine
 10
31.17904980703
 20
-1327.301008752476
 11
30.77904980703
 21
-1327.301008752476
  0
LINE
  5
36A
100
AcDbEntity
  8
1
  6
DASHED
 62
           6
100
AcDbLine
 10
30.77904980703
 20
-1319.301008752476
 11
31.17904980703
 21
-1319.301008752476
  0
LINE
  5
369
100
AcDbEntity
  8
1
  6
DASHED
 62
           6
100
AcDbLine
 10
32.67904980703
 20
-1320.801008752476
 11
31.17904980703
 21
-1319.301008752476
  0
LINE
  5
368
100
AcDbEntity
  8
1
  6
DOT_CENTER
 62
           4
100
AcDbLine
 10
29.27904980703
 20
-1323.301008752476
 11
52.27904980703
 21
-1323.301008752476
  0
LINE
  5
367
100
AcDbEntity
  8
1
  6
DASHED
 62
           6
100
AcDbLine
 10
32.67904980703
 20
-1325.301008752476
 11
50.77904980703
 21
-1325.301008752476
  0
LINE
  5
366
100
AcDbEntity
  8
1
  6
DASHED
 62
           6
100
AcDbLine
 10
32.67904980703
 20
-1325.801008752476
 11
32.67904980703
 21
-1320.801008752476
  0
LINE
  5
365
100
AcDbEntity
  8
1
  6
DASHED
 62
           6
100
AcDbLine
 10
32.67904980703
 20
-1325.801008752476
 11
50.27904980703
 21
-1325.801008752476
  0
LINE
  5
364
100
AcDbEntity
  8
1
  6
DASHED
 62
           6
100
AcDbLine
 10
31.17904980703
 20
-1327.301008752476
 11
32.67904980703
 21
-1325.801008752476
  0
LINE
  5
363
100
AcDbEntity
  8
1
  6
DASHED
 62
           6
100
AcDbLine
 10
31.17904980703
 20
-1327.301008752476
 11
31.17904980703
 21
-1319.301008752476
  0
ENDBLK
  5
373
100
AcDbEntity
  8
0
100
AcDbBlockEnd
  0
BLOCK
  5
5A
100
AcDbEntity
  8
0
100
AcDbBlockBegin
  2
______22
 70
           0
 10
0.0
 20
0.0
 30
0.0
  3
______22
  1

  0
LINE
  5
377
100
AcDbEntity
  8
1
  6
CONTINUOUS
 62
           2
100
AcDbLine
 10
22.629069807029
 20
-1308.701008752479
 11
24.629069807029
 21
-1308.701008752479
  0
LINE
  5
376
100
AcDbEntity
  8
1
  6
CONTINUOUS
 62
           2
100
AcDbLine
 10
22.629069807029
 20
-1324.701008752479
 11
22.629069807029
 21
-1308.701008752479
  0
LINE
  5
375
100
AcDbEntity
  8
1
  6
CONTINUOUS
 62
           2
100
AcDbLine
 10
24.629069807029
 20
-1324.701008752479
 11
22.629069807029
 21
-1324.701008752479
  0
LINE
  5
374
100
AcDbEntity
  8
1
  6
CONTINUOUS
 62
           2
100
AcDbLine
 10
24.629069807029
 20
-1308.701008752479
 11
24.629069807029
 21
-1324.701008752479
  0
ENDBLK
  5
378
100
AcDbEntity
  8
0
100
AcDbBlockEnd
  0
BLOCK
  5
5C
100
AcDbEntity
  8
0
100
AcDbBlockBegin
  2
_X_G_B_P___S__
 70
           0
 10
0.0
 20
0.0
 30
0.0
  3
_X_G_B_P___S__
  1

  0
ARC
  5
383
100
AcDbEntity
  8
1
  6
CONTINUOUS
 62
           2
100
AcDbCircle
 10
31.97904980703
 20
-1318.201008752475
 40
0.3
100
AcDbArc
 50
0.0
 51
90.0
  0
ARC
  5
382
100
AcDbEntity
  8
1
  6
CONTINUOUS
 62
           2
100
AcDbCircle
 10
31.07904980703
 20
-1318.201008752475
 40
0.299999999998
100
AcDbArc
 50
90.0
 51
180.0
  0
ARC
  5
381
100
AcDbEntity
  8
1
  6
CONTINUOUS
 62
           2
100
AcDbCircle
 10
31.07904980703
 20
-1328.401008752477
 40
0.3
100
AcDbArc
 50
180.0
 51
-90.0
  0
ARC
  5
380
100
AcDbEntity
  8
1
  6
CONTINUOUS
 62
           2
100
AcDbCircle
 10
31.97904980703
 20
-1328.401008752477
 40
0.299999999999
100
AcDbArc
 50
-90.0
 51
0.0
  0
LINE
  5
37F
100
AcDbEntity
  8
1
  6
CONTINUOUS
 62
           2
100
AcDbLine
 10
32.27904980703
 20
-1318.201008752475
 11
32.27904980703
 21
-1328.401008752477
  0
LINE
  5
37E
100
AcDbEntity
  8
1
  6
CONTINUOUS
 62
           2
100
AcDbLine
 10
31.97904980703
 20
-1328.701008752476
 11
31.07904980703
 21
-1328.701008752476
  0
LINE
  5
37D
100
AcDbEntity
  8
1
  6
CONTINUOUS
 62
           2
100
AcDbLine
 10
30.77904980703
 20
-1328.401008752477
 11
30.77904980703
 21
-1318.201008752475
  0
LINE
  5
37C
100
AcDbEntity
  8
1
  6
CONTINUOUS
 62
           2
100
AcDbLine
 10
31.07904980703
 20
-1317.901008752477
 11
31.97904980703
 21
-1317.901008752477
  0
LINE
  5
37B
100
AcDbEntity
  8
0
  6
CONTINUOUS
 62
           2
100
AcDbLine
 10
43.77904980703
 20
-1326.701008752475
 11
32.27904980703
 21
-1326.701008752475
  0
LINE
  5
37A
100
AcDbEntity
  8
0
  6
CONTINUOUS
 62
           2
100
AcDbLine
 10
43.77904980703
 20
-1319.901008752477
 11
32.27904980703
 21
-1319.901008752477
  0
LINE
  5
379
100
AcDbEntity
  8
1
  6
DOT_CENTER
 62
           1
100
AcDbLine
 10
29.739319985705
 20
-1323.301008752476
 11
52.689059985706
 21
-1323.301008752476
  0
ENDBLK
  5
384
100
AcDbEntity
  8
0
100
AcDbBlockEnd
  0
BLOCK
  5
5E
100
AcDbEntity
  8
0
100
AcDbBlockBegin
  2
_X_G_B_P___S__ASSY
 70
           0
 10
0.0
 20
0.0
 30
0.0
  3
_X_G_B_P___S__ASSY
  1

  0
INSERT
  5
5F
100
AcDbEntity
  8
0
100
AcDbBlockReference
  2
_X_G_B_P___S__
 10
0.0
 20
0.0
  0
ENDBLK
  5
385
100
AcDbEntity
  8
0
100
AcDbBlockEnd
  0
BLOCK
  5
61
100
AcDbEntity
  8
0
100
AcDbBlockBegin
  2
_X___C____
 70
           0
 10
0.0
 20
0.0
 30
0.0
  3
_X___C____
  1

  0
ARC
  5
3A5
100
AcDbEntity
  8
0
  6
CONTINUOUS
 62
           4
100
AcDbCircle
 10
30.67904980703
 20
-1333.65100875253
 40
0.5
100
AcDbArc
 50
-90.0
 51
0.0
  0
ARC
  5
3A4
100
AcDbEntity
  8
0
  6
CONTINUOUS
 62
           4
100
AcDbCircle
 10
33.279049807031
 20
-1322.10100875253
 40
0.5
100
AcDbArc
 50
-90.0
 51
0.0
  0
ARC
  5
3A3
100
AcDbEntity
  8
0
  6
CONTINUOUS
 62
           4
100
AcDbCircle
 10
28.27904980703
 20
-1324.751008752532
 40
0.5
100
AcDbArc
 50
90.0
 51
180.0
  0
ARC
  5
3A2
100
AcDbEntity
  8
0
  6
CONTINUOUS
 62
           4
100
AcDbCircle
 10
30.67904980703
 20
-1324.751008752532
 40
0.5
100
AcDbArc
 50
0.0
 51
90.0
  0
ARC
  5
3A1
100
AcDbEntity
  8
0
  6
CONTINUOUS
 62
           4
100
AcDbCircle
 10
28.27904980703
 20
-1333.65100875253
 40
0.5
100
AcDbArc
 50
180.0
 51
-90.0
  0
LINE
  5
3A0
100
AcDbEntity
  8
0
  6
CONTINUOUS
 62
           4
100
AcDbLine
 10
32.479049807031
 20
-1326.701008752531
 11
32.479049807031
 21
-1322.701008752531
  0
LINE
  5
39F
100
AcDbEntity
  8
0
  6
CONTINUOUS
 62
           4
100
AcDbLine
 10
32.479049807031
 20
-1326.701008752531
 11
32.479049807031
 21
-1326.801008752531
  0
LINE
  5
39E
100
AcDbEntity
  8
0
  6
CONTINUOUS
 62
           4
100
AcDbLine
 10
31.17904980703
 20
-1326.801008752531
 11
31.17904980703
 21
-1324.751008752532
  0
LINE
  5
39D
100
AcDbEntity
  8
0
  6
CONTINUOUS
 62
           4
100
AcDbLine
 10
32.479049807031
 20
-1326.801008752531
 11
31.17904980703
 21
-1326.801008752531
  0
LINE
  5
39C
100
AcDbEntity
  8
0
  6
CONTINUOUS
 62
           4
100
AcDbLine
 10
32.479049807031
 20
-1331.60100875253
 11
32.479049807031
 21
-1331.701008752531
  0
LINE
  5
39B
100
AcDbEntity
  8
0
  6
CONTINUOUS
 62
           4
100
AcDbLine
 10
31.17904980703
 20
-1331.60100875253
 11
32.479049807031
 21
-1331.60100875253
  0
LINE
  5
39A
100
AcDbEntity
  8
0
  6
CONTINUOUS
 62
           4
100
AcDbLine
 10
33.779049807031
 20
-1335.201008752531
 11
35.779049807067
 21
-1335.201008752531
  0
LINE
  5
399
100
AcDbEntity
  8
0
  6
CONTINUOUS
 62
           4
100
AcDbLine
 10
29.57904980703
 20
-1326.15100875253
 11
29.579049807032
 21
-1327.701008752531
  0
LINE
  5
398
100
AcDbEntity
  8
0
  6
CONTINUOUS
 62
           4
100
AcDbLine
 10
33.779049807031
 20
-1335.201008752531
 11
33.779049807031
 21
-1322.10100875253
  0
LINE
  5
397
100
AcDbEntity
  8
0
  6
CONTINUOUS
 62
           4
100
AcDbLine
 10
32.479049807031
 20
-1335.201008752531
 11
32.479049807042
 21
-1333.251008752699
  0
LINE
  5
396
100
AcDbEntity
  8
0
  6
CONTINUOUS
 62
           4
100
AcDbLine
 10
32.479049807042
 20
-1333.251008752699
 11
32.479049807031
 21
-1331.701008752531
  0
LINE
  5
395
100
AcDbEntity
  8
0
  6
CONTINUOUS
 62
           4
100
AcDbLine
 10
32.479049807031
 20
-1335.201008752531
 11
33.779049807031
 21
-1335.201008752531
  0
LINE
  5
394
100
AcDbEntity
  8
0
  6
CONTINUOUS
 62
           4
100
AcDbLine
 10
31.17904980703
 20
-1333.65100875253
 11
31.17904980703
 21
-1331.60100875253
  0
LINE
  5
393
100
AcDbEntity
  8
0
  6
CONTINUOUS
 62
           4
100
AcDbLine
 10
32.479049807031
 20
-1322.60100875253
 11
33.279049807031
 21
-1322.60100875253
  0
LINE
  5
392
100
AcDbEntity
  8
0
  6
CONTINUOUS
 62
           4
100
AcDbLine
 10
32.479049807031
 20
-1322.60100875253
 11
32.479049807031
 21
-1322.701008752531
  0
LINE
  5
391
100
AcDbEntity
  8
0
  6
CONTINUOUS
 62
           4
100
AcDbLine
 10
30.67904980703
 20
-1324.251008752532
 11
28.27904980703
 21
-1324.251008752532
  0
LINE
  5
390
100
AcDbEntity
  8
0
  6
CONTINUOUS
 62
           4
100
AcDbLine
 10
27.77904980703
 20
-1326.15100875253
 11
27.77904980703
 21
-1324.751008752532
  0
LINE
  5
38F
100
AcDbEntity
  8
0
  6
CONTINUOUS
 62
           4
100
AcDbLine
 10
27.77904980703
 20
-1326.15100875253
 11
29.57904980703
 21
-1326.15100875253
  0
LINE
  5
38E
100
AcDbEntity
  8
0
  6
CONTINUOUS
 62
           4
100
AcDbLine
 10
27.77904980703
 20
-1333.65100875253
 11
27.77904980703
 21
-1332.251008752532
  0
LINE
  5
38D
100
AcDbEntity
  8
0
  6
CONTINUOUS
 62
           4
100
AcDbLine
 10
29.579049807032
 20
-1327.701008752531
 11
29.579049807032
 21
-1330.701008752531
  0
LINE
  5
38C
100
AcDbEntity
  8
0
  6
CONTINUOUS
 62
           4
100
AcDbLine
 10
28.27904980703
 20
-1334.15100875253
 11
30.67904980703
 21
-1334.15100875253
  0
LINE
  5
38B
100
AcDbEntity
  8
0
  6
CONTINUOUS
 62
           4
100
AcDbLine
 10
29.57904980703
 20
-1332.251008752532
 11
27.77904980703
 21
-1332.251008752532
  0
LINE
  5
38A
100
AcDbEntity
  8
0
  6
CONTINUOUS
 62
           4
100
AcDbLine
 10
29.579049807032
 20
-1330.701008752531
 11
29.57904980703
 21
-1332.251008752532
  0
LINE
  5
389
100
AcDbEntity
  8
0
  6
CONTINUOUS
 62
           4
100
AcDbLine
 10
35.779049807031
 20
-1299.701008752531
 11
33.779049807031
 21
-1299.701008752531
  0
LINE
  5
388
100
AcDbEntity
  8
0
  6
CONTINUOUS
 62
           4
100
AcDbLine
 10
33.779049807031
 20
-1322.10100875253
 11
33.779049807031
 21
-1299.701008752531
  0
LINE
  5
387
100
AcDbEntity
  8
0
  6
CONTINUOUS
 62
           4
100
AcDbLine
 10
35.779049807031
 20
-1299.80100875308
 11
35.779049807031
 21
-1299.701008752531
  0
LINE
  5
386
100
AcDbEntity
  8
0
  6
CONTINUOUS
 62
           4
100
AcDbLine
 10
35.779049807031
 20
-1299.80100875308
 11
35.779049807067
 21
-1335.201008752531
  0
ENDBLK
  5
3A6
100
AcDbEntity
  8
0
100
AcDbBlockEnd
  0
BLOCK
  5
63
100
AcDbEntity
  8
0
100
AcDbBlockBegin
  2
_X___C____ASSY__23
 70
           0
 10
0.0
 20
0.0
 30
0.0
  3
_X___C____ASSY__23
  1

  0
INSERT
  5
64
100
AcDbEntity
  8
0
100
AcDbBlockReference
  2
_X___C____
 10
0.0
 20
0.0
  0
ENDBLK
  5
3A7
100
AcDbEntity
  8
0
100
AcDbBlockEnd
  0
BLOCK
  5
66
100
AcDbEntity
  8
0
100
AcDbBlockBegin
  2
_A____
 70
           0
 10
0.0
 20
0.0
 30
0.0
  3
_A____
  1

  0
LINE
  5
3C5
100
AcDbEntity
  8
0
  6
CONTINUOUS
 62
           4
100
AcDbLine
 10
35.779049807031
 20
-1335.201008752531
 11
35.779049807068
 21
-1335.701008752531
  0
LINE
  5
3C4
100
AcDbEntity
  8
0
  6
CONTINUOUS
 62
           4
100
AcDbLine
 10
35.779049807068
 20
-1335.701008752531
 11
34.279049807031
 21
-1335.701008752531
  0
LINE
  5
3C3
100
AcDbEntity
  8
0
  6
CONTINUOUS
 62
           4
100
AcDbLine
 10
34.279049807031
 20
-1335.201008752531
 11
34.279049807032
 21
-1335.601008752689
  0
LINE
  5
3C2
100
AcDbEntity
  8
0
  6
CONTINUOUS
 62
           4
100
AcDbLine
 10
34.279049807032
 20
-1335.601008752689
 11
34.279049807031
 21
-1335.701008752531
  0
LINE
  5
3C1
100
AcDbEntity
  8
0
  6
CONTINUOUS
 62
           4
100
AcDbLine
 10
34.279049807031
 20
-1335.701008752531
 11
32.479049807031
 21
-1335.701008752526
  0
LINE
  5
3C0
100
AcDbEntity
  8
0
  6
CONTINUOUS
 62
           4
100
AcDbLine
 10
33.279049807042
 20
-1316.84403268267
 11
33.27904980703
 21
-1321.80100875248
  0
LINE
  5
3BF
100
AcDbEntity
  8
0
  6
CONTINUOUS
 62
           4
100
AcDbLine
 10
33.27904980703
 20
-1322.001008752532
 11
33.27904980703
 21
-1321.80100875248
  0
LINE
  5
3BE
100
AcDbEntity
  8
0
  6
CONTINUOUS
 62
           4
100
AcDbLine
 10
33.27904980703
 20
-1321.80100875248
 11
31.77904980703
 21
-1321.80100875248
  0
LINE
  5
3BD
100
AcDbEntity
  8
0
  6
CONTINUOUS
 62
           4
100
AcDbLine
 10
33.279049807038
 20
-1303.051008752969
 11
33.27904980703
 21
-1304.801008752828
  0
LINE
  5
3BC
100
AcDbEntity
  8
0
  6
CONTINUOUS
 62
           4
100
AcDbLine
 10
33.27904980703
 20
-1316.801008752828
 11
33.279049807042
 21
-1316.84403268267
  0
LINE
  5
3BB
100
AcDbEntity
  8
0
  6
CONTINUOUS
 62
           4
100
AcDbLine
 10
33.27904980703
 20
-1316.801008752828
 11
33.279049807042
 21
-1314.04749491263
  0
LINE
  5
3BA
100
AcDbEntity
  8
0
  6
CONTINUOUS
 62
           4
100
AcDbLine
 10
33.279049807042
 20
-1309.54749491263
 11
33.279049807042
 21
-1308.257560219768
  0
LINE
  5
3B9
100
AcDbEntity
  8
0
  6
CONTINUOUS
 62
           4
100
AcDbLine
 10
33.279049807042
 20
-1313.04749491263
 11
33.279049807042
 21
-1312.05698970496
  0
LINE
  5
3B8
100
AcDbEntity
  8
0
  6
CONTINUOUS
 62
           4
100
AcDbLine
 10
33.279049807042
 20
-1312.05698970496
 11
33.279049807042
 21
-1310.951629796216
  0
LINE
  5
3B7
100
AcDbEntity
  8
0
  6
CONTINUOUS
 62
           4
100
AcDbLine
 10
33.279049807038
 20
-1306.551008752968
 11
33.27904980703
 21
-1304.801008752828
  0
LINE
  5
3B6
100
AcDbEntity
  8
0
  6
CONTINUOUS
 62
           4
100
AcDbLine
 10
33.27904980703
 20
-1307.751008752824
 11
33.279049807038
 21
-1306.551008752968
  0
LINE
  5
3B5
100
AcDbEntity
  8
0
  6
CONTINUOUS
 62
           4
100
AcDbLine
 10
33.279049807042
 20
-1314.000086027269
 11
33.27904980703
 21
-1313.851008752818
  0
LINE
  5
3B4
100
AcDbEntity
  8
0
  6
CONTINUOUS
 62
           4
100
AcDbLine
 10
33.279049807042
 20
-1314.04749491263
 11
33.279049807042
 21
-1314.000086027269
  0
LINE
  5
3B3
100
AcDbEntity
  8
0
  6
CONTINUOUS
 62
           4
100
AcDbLine
 10
33.27904980703
 20
-1313.851008752818
 11
33.279049807042
 21
-1313.04749491263
  0
LINE
  5
3B2
100
AcDbEntity
  8
0
  6
CONTINUOUS
 62
           4
100
AcDbLine
 10
33.279049807042
 20
-1310.951629796216
 11
33.279049807042
 21
-1310.54749491263
  0
LINE
  5
3B1
100
AcDbEntity
  8
0
  6
CONTINUOUS
 62
           4
100
AcDbLine
 10
33.279049807042
 20
-1310.257560219768
 11
33.279049807042
 21
-1309.54749491263
  0
LINE
  5
3B0
100
AcDbEntity
  8
0
  6
CONTINUOUS
 62
           4
100
AcDbLine
 10
33.279049807042
 20
-1310.54749491263
 11
33.279049807042
 21
-1310.257560219768
  0
LINE
  5
3AF
100
AcDbEntity
  8
0
  6
CONTINUOUS
 62
           4
100
AcDbLine
 10
33.279049807042
 20
-1308.257560219768
 11
33.27904980703
 21
-1307.751008752824
  0
LINE
  5
3AE
100
AcDbEntity
  8
0
  6
CONTINUOUS
 62
           4
100
AcDbLine
 10
33.27904980703
 20
-1299.801008752837
 11
33.279049807038
 21
-1303.051008752969
  0
LINE
  5
3AD
100
AcDbEntity
  8
0
  6
CONTINUOUS
 62
           4
100
AcDbLine
 10
33.27904980703
 20
-1299.801008752837
 11
33.779049807031
 21
-1299.801008753077
  0
LINE
  5
3AC
100
AcDbEntity
  8
0
  6
CONTINUOUS
 62
           4
100
AcDbLine
 10
31.77904980703
 20
-1299.801008752837
 11
33.27904980703
 21
-1299.801008752837
  0
LINE
  5
3AB
100
AcDbEntity
  8
0
  6
CONTINUOUS
 62
           4
100
AcDbLine
 10
31.60642667425
 20
-1299.801008753028
 11
31.77904980703
 21
-1299.801008752837
  0
LINE
  5
3AA
100
AcDbEntity
  8
0
  6
CONTINUOUS
 62
           4
100
AcDbLine
 10
31.27904980703
 20
-1299.801008753031
 11
31.60642667425
 21
-1299.801008753028
  0
LINE
  5
3A9
100
AcDbEntity
  8
0
  6
CONTINUOUS
 62
           4
100
AcDbLine
 10
31.60642667425
 20
-1299.801008753028
 11
31.606426674253
 21
-1302.301008752969
  0
LINE
  5
3A8
100
AcDbEntity
  8
0
  6
CONTINUOUS
 62
           4
100
AcDbLine
 10
31.77904980703
 20
-1299.801008752837
 11
31.779049807038
 21
-1322.001008752533
  0
ENDBLK
  5
3C6
100
AcDbEntity
  8
0
100
AcDbBlockEnd
  0
BLOCK
  5
68
100
AcDbEntity
  8
0
100
AcDbBlockBegin
  2
__
 70
           0
 10
0.0
 20
0.0
 30
0.0
  3
__
  1

  0
LINE
  5
3C7
100
AcDbEntity
  8
0
  6
CONTINUOUS
 62
           4
100
AcDbLine
 10
30.27904980703
 20
-1302.301008752969
 11
31.779049807038
 21
-1302.301008752969
  0
ENDBLK
  5
3C8
100
AcDbEntity
  8
0
100
AcDbBlockEnd
  0
BLOCK
  5
6A
100
AcDbEntity
  8
0
100
AcDbBlockBegin
  2
_A____ASSY
 70
           0
 10
0.0
 20
0.0
 30
0.0
  3
_A____ASSY
  1

  0
INSERT
  5
6B
100
AcDbEntity
  8
0
100
AcDbBlockReference
  2
_A____
 10
0.0
 20
0.0
  0
INSERT
  5
6C
100
AcDbEntity
  8
0
100
AcDbBlockReference
  2
__
 10
0.0
 20
0.0
  0
ENDBLK
  5
3C9
100
AcDbEntity
  8
0
100
AcDbBlockEnd
  0
BLOCK
  5
6E
100
AcDbEntity
  8
0
100
AcDbBlockBegin
  2
M3_M_2
 70
           0
 10
0.0
 20
0.0
 30
0.0
  3
M3_M_2
  1

  0
LINE
  5
3D3
100
AcDbEntity
  8
0
  6
CONTINUOUS
 62
           7
100
AcDbLine
 10
26.27904980703
 20
-1309.201008753348
 11
26.27904980703
 21
-1311.311494756116
  0
LINE
  5
3D2
100
AcDbEntity
  8
0
  6
CONTINUOUS
 62
           7
100
AcDbLine
 10
26.27904980703
 20
-1311.718508753349
 11
26.27904980703
 21
-1311.971008753349
  0
LINE
  5
3D1
100
AcDbEntity
  8
0
  6
CONTINUOUS
 62
           7
100
AcDbLine
 10
26.27904980703
 20
-1311.311494756116
 11
26.27904980703
 21
-1311.63022002529
  0
LINE
  5
3D0
100
AcDbEntity
  8
0
  6
CONTINUOUS
 62
           7
100
AcDbLine
 10
26.27904980703
 20
-1311.63022002529
 11
26.27904980703
 21
-1311.718508753349
  0
LINE
  5
3CF
100
AcDbEntity
  8
0
  6
CONTINUOUS
 62
           7
100
AcDbLine
 10
26.27904980703
 20
-1311.971008753349
 11
26.27904980703
 21
-1312.201008753348
  0
LINE
  5
3CE
100
AcDbEntity
  8
0
  6
CONTINUOUS
 62
           7
100
AcDbLine
 10
26.27904980703
 20
-1313.090522750581
 11
26.27904980703
 21
-1315.201008753348
  0
LINE
  5
3CD
100
AcDbEntity
  8
0
  6
CONTINUOUS
 62
           7
100
AcDbLine
 10
26.27904980703
 20
-1312.771797481406
 11
26.27904980703
 21
-1313.090522750581
  0
LINE
  5
3CC
100
AcDbEntity
  8
0
  6
CONTINUOUS
 62
           7
100
AcDbLine
 10
26.27904980703
 20
-1312.201008753348
 11
26.27904980703
 21
-1312.431008753349
  0
LINE
  5
3CB
100
AcDbEntity
  8
0
  6
CONTINUOUS
 62
           7
100
AcDbLine
 10
26.27904980703
 20
-1312.431008753349
 11
26.27904980703
 21
-1312.683508753348
  0
LINE
  5
3CA
100
AcDbEntity
  8
0
  6
CONTINUOUS
 62
           7
100
AcDbLine
 10
26.27904980703
 20
-1312.683508753348
 11
26.27904980703
 21
-1312.771797481406
  0
ENDBLK
  5
3D4
100
AcDbEntity
  8
0
100
AcDbBlockEnd
  0
BLOCK
  5
70
100
AcDbEntity
  8
0
100
AcDbBlockBegin
  2
_A______
 70
           0
 10
0.0
 20
0.0
 30
0.0
  3
_A______
  1

  0
LINE
  5
3D6
100
AcDbEntity
  8
0
  6
CONTINUOUS
 62
           4
100
AcDbLine
 10
28.27904980703
 20
-1307.801008752828
 11
31.779049807035
 21
-1307.801008752828
  0
LINE
  5
3D5
100
AcDbEntity
  8
0
  6
CONTINUOUS
 62
           4
100
AcDbLine
 10
30.134173909173
 20
-1313.801008752828
 11
31.779049807035
 21
-1313.801008752828
  0
ENDBLK
  5
3D7
100
AcDbEntity
  8
0
100
AcDbBlockEnd
  0
BLOCK
  5
72
100
AcDbEntity
  8
0
100
AcDbBlockBegin
  2
M3_M_2_1
 70
           0
 10
0.0
 20
0.0
 30
0.0
  3
M3_M_2_1
  1

  0
LINE
  5
3E3
100
AcDbEntity
  8
0
  6
CONTINUOUS
 62
           4
100
AcDbLine
 10
26.27904980703
 20
-1305.590522750581
 11
26.27904980703
 21
-1307.701008753348
  0
LINE
  5
3E2
100
AcDbEntity
  8
0
  6
CONTINUOUS
 62
           4
100
AcDbLine
 10
26.27904980703
 20
-1301.701008753349
 11
26.27904980703
 21
-1302.201008753349
  0
LINE
  5
3E1
100
AcDbEntity
  8
0
  6
CONTINUOUS
 62
           4
100
AcDbLine
 10
26.27904980703
 20
-1302.201008753349
 11
26.27904980703
 21
-1303.811494756116
  0
LINE
  5
3E0
100
AcDbEntity
  8
0
  6
CONTINUOUS
 62
           4
100
AcDbLine
 10
26.27904980703
 20
-1304.218508753349
 11
26.27904980703
 21
-1304.471008753349
  0
LINE
  5
3DF
100
AcDbEntity
  8
0
  6
CONTINUOUS
 62
           4
100
AcDbLine
 10
26.27904980703
 20
-1303.811494756116
 11
26.27904980703
 21
-1304.13022002529
  0
LINE
  5
3DE
100
AcDbEntity
  8
0
  6
CONTINUOUS
 62
           4
100
AcDbLine
 10
26.27904980703
 20
-1304.13022002529
 11
26.27904980703
 21
-1304.218508753349
  0
LINE
  5
3DD
100
AcDbEntity
  8
0
  6
CONTINUOUS
 62
           4
100
AcDbLine
 10
26.27904980703
 20
-1304.471008753349
 11
26.27904980703
 21
-1304.701008753349
  0
LINE
  5
3DC
100
AcDbEntity
  8
0
  6
CONTINUOUS
 62
           4
100
AcDbLine
 10
26.27904980703
 20
-1305.271797481406
 11
26.27904980703
 21
-1305.590522750581
  0
LINE
  5
3DB
100
AcDbEntity
  8
0
  6
CONTINUOUS
 62
           4
100
AcDbLine
 10
26.27904980703
 20
-1304.701008753349
 11
26.27904980703
 21
-1304.931008753349
  0
LINE
  5
3DA
100
AcDbEntity
  8
0
  6
CONTINUOUS
 62
           4
100
AcDbLine
 10
26.27904980703
 20
-1304.931008753349
 11
26.27904980703
 21
-1305.183508753348
  0
LINE
  5
3D9
100
AcDbEntity
  8
0
  6
CONTINUOUS
 62
           4
100
AcDbLine
 10
26.27904980703
 20
-1305.183508753348
 11
26.27904980703
 21
-1305.271797481406
  0
LINE
  5
3D8
100
AcDbEntity
  8
0
  6
CONTINUOUS
 62
           4
100
AcDbLine
 10
30.27904980703
 20
-1305.701008753348
 11
30.27904980703
 21
-1303.701008753348
  0
ENDBLK
  5
3E4
100
AcDbEntity
  8
0
100
AcDbBlockEnd
  0
BLOCK
  5
74
100
AcDbEntity
  8
0
100
AcDbBlockBegin
  2
_K_C_H
 70
           0
 10
0.0
 20
0.0
 30
0.0
  3
_K_C_H
  1

  0
LINE
  5
3F4
100
AcDbEntity
  8
0
  6
CONTINUOUS
 62
           4
100
AcDbLine
 10
28.27904980703
 20
-1313.801008752828
 11
28.27904980703
 21
-1314.49574559517
  0
LINE
  5
3F3
100
AcDbEntity
  8
0
  6
CONTINUOUS
 62
           4
100
AcDbLine
 10
28.27904980703
 20
-1314.701008752479
 11
28.27904980703
 21
-1315.701008753048
  0
LINE
  5
3F2
100
AcDbEntity
  8
0
  6
CONTINUOUS
 62
           4
100
AcDbLine
 10
28.27904980703
 20
-1314.49574559517
 11
28.27904980703
 21
-1314.701008752479
  0
LINE
  5
3F1
100
AcDbEntity
  8
0
  6
CONTINUOUS
 62
           4
100
AcDbLine
 10
28.27904980703
 20
-1313.701008753348
 11
28.27904980703
 21
-1313.801008752828
  0
LINE
  5
3F0
100
AcDbEntity
  8
0
  6
CONTINUOUS
 62
           4
100
AcDbLine
 10
28.27904980703
 20
-1312.147083837802
 11
28.27904980703
 21
-1313.701008753348
  0
LINE
  5
3EF
100
AcDbEntity
  8
0
  6
CONTINUOUS
 62
           4
100
AcDbLine
 10
28.27904980703
 20
-1307.801008752828
 11
28.27904980703
 21
-1312.147083837802
  0
LINE
  5
3EE
100
AcDbEntity
  8
0
  6
CONTINUOUS
 62
           4
100
AcDbLine
 10
28.27904980703
 20
-1302.201008753349
 11
28.27904980703
 21
-1307.801008752828
  0
LINE
  5
3ED
100
AcDbEntity
  8
0
  6
CONTINUOUS
 62
           4
100
AcDbLine
 10
28.27904980703
 20
-1301.201008753349
 11
30.27904980703
 21
-1301.201008753349
  0
LINE
  5
3EC
100
AcDbEntity
  8
0
  6
CONTINUOUS
 62
           4
100
AcDbLine
 10
28.27904980703
 20
-1301.201008753349
 11
28.27904980703
 21
-1301.946954699294
  0
LINE
  5
3EB
100
AcDbEntity
  8
0
  6
CONTINUOUS
 62
           4
100
AcDbLine
 10
28.27904980703
 20
-1301.946954699294
 11
28.27904980703
 21
-1302.201008753349
  0
LINE
  5
3EA
100
AcDbEntity
  8
0
  6
CONTINUOUS
 62
           4
100
AcDbLine
 10
28.27904980703
 20
-1301.946954699294
 11
30.27904980703
 21
-1301.946954699294
  0
LINE
  5
3E9
100
AcDbEntity
  8
0
  6
CONTINUOUS
 62
           4
100
AcDbLine
 10
30.27904980703
 20
-1313.801008752828
 11
30.27904980703
 21
-1314.122185500754
  0
LINE
  5
3E8
100
AcDbEntity
  8
0
  6
CONTINUOUS
 62
           4
100
AcDbLine
 10
30.27904980703
 20
-1301.946954699294
 11
30.27904980703
 21
-1301.201008753349
  0
LINE
  5
3E7
100
AcDbEntity
  8
0
  6
CONTINUOUS
 62
           4
100
AcDbLine
 10
30.27904980703
 20
-1301.946954699294
 11
30.27904980703
 21
-1303.701008753348
  0
LINE
  5
3E6
100
AcDbEntity
  8
0
  6
CONTINUOUS
 62
           4
100
AcDbLine
 10
30.27904980703
 20
-1305.701008753348
 11
30.27904980703
 21
-1303.701008753348
  0
LINE
  5
3E5
100
AcDbEntity
  8
0
  6
CONTINUOUS
 62
           4
100
AcDbLine
 10
30.27904980703
 20
-1305.701008753348
 11
30.27904980703
 21
-1307.801008752828
  0
ENDBLK
  5
3F5
100
AcDbEntity
  8
0
100
AcDbBlockEnd
  0
BLOCK
  5
76
100
AcDbEntity
  8
0
100
AcDbBlockBegin
  2
M4_TORASU_1
 70
           0
 10
0.0
 20
0.0
 30
0.0
  3
M4_TORASU_1
  1

  0
SPLINE
  5
417
100
AcDbEntity
  8
0
  6
CONTINUOUS
 62
           6
100
AcDbSpline
210
0.0
220
0.0
230
1.0
 70
           0
 71
           4
 72
          20
 73
          16
 74
          27
 42
0.00000000001
 43
0.00000000001
 44
0.00000000001
 40
0.0
 40
0.0
 40
0.0
 40
0.0
 40
0.1176657407083172
 40
0.193531835810318
 40
0.3133955791707211
 40
0.4220282256717618
 40
0.5104888231582309
 40
0.5543015026375775
 40
0.5933990678139596
 40
0.6267967968854985
 40
0.6533306285420762
 40
0.6830958111841297
 40
0.7083562501577848
 40
0.7308152749752527
 40
0.7632627883790291
 40
0.7632627883790291
 40
0.7632627883790291
 40
0.7632627883790291
 10
30.58069254597558
 20
-1318.1965066671651
 30
0.0
 10
30.59143119900364
 20
-1318.147251670013
 30
0.0
 10
30.60467718529571
 20
-1318.0813153022691
 30
0.0
 10
30.616397494962708
 20
-1318.0063599907339
 30
0.0
 10
30.634914860170738
 20
-1317.8879352291419
 30
0.0
 10
30.644501752213731
 20
-1317.7797264338119
 30
0.0
 10
30.644502071905659
 20
-1317.691265836326
 30
0.0
 10
30.644502230242779
 20
-1317.647453156847
 30
0.0
 10
30.642150848942951
 20
-1317.608426363375
 30
0.0
 10
30.637349951449782
 20
-1317.5753754981761
 30
0.0
 10
30.633535733854838
 20
-1317.549117242969
 30
0.0
 10
30.627218069704671
 20
-1317.520030249013
 30
0.0
 10
30.61639702220964
 20
-1317.4972049405101
 30
0.0
 10
30.6067760423648
 20
-1317.47691098716
 30
0.0
 10
30.594813301814611
 20
-1317.4641404750951
 30
0.0
 10
30.58069254597558
 20
-1317.459233237267
 30
0.0
 11
30.58069254597558
 21
-1318.1965066671651
 31
0.0
 11
30.594844648296721
 21
-1318.1292609875316
 31
0.0
 11
30.605317099083461
 21
-1318.0743374966059
 31
0.0
 11
30.610466994702549
 21
-1318.0439268613063
 31
0.0
 11
30.61544141924659
 21
-1318.0124744156235
 31
0.0
 11
30.624634060066342
 21
-1317.9525214608377
 31
0.0
 11
30.633674531220848
 21
-1317.8865640819827
 31
0.0
 11
30.639759353139414
 21
-1317.8285851184
 31
0.0
 11
30.643300935373919
 21
-1317.7712948832018
 31
0.0
 11
30.644351846637051
 21
-1317.7242919845673
 31
0.0
 11
30.64450210730811
 21
-1317.6814698120909
 31
0.0
 11
30.644443662505399
 21
-1317.6630205574563
 31
0.0
 11
30.644034149463685
 21
-1317.644398135184
 31
0.0
 11
30.643100173447245
 21
-1317.6260130366998
 31
0.0
 11
30.641439673146071
 21
-1317.6065517143293
 31
0.0
 11
30.639405357833756
 21
-1317.5899032154643
 31
0.0
 11
30.637128044606293
 21
-1317.5738478227388
 31
0.0
 11
30.635319741227821
 21
-1317.5616750052316
 31
0.0
 11
30.633236234839288
 21
-1317.5492642229133
 31
0.0
 11
30.630133685999475
 21
-1317.5343458954576
 31
0.0
 11
30.625867756696842
 21
-1317.519422875795
 31
0.0
 11
30.621240059052159
 21
-1317.5077006824556
 31
0.0
 11
30.616268444362181
 21
-1317.4969337256355
 31
0.0
 11
30.61193137298913
 21
-1317.4880460069369
 31
0.0
 11
30.607075745521705
 21
-1317.4796284084121
 31
0.0
 11
30.597232071284886
 21
-1317.4682931304631
 31
0.0
 11
30.58069254597558
 21
-1317.459233237267
 31
0.0
  0
SPLINE
  5
416
100
AcDbEntity
  8
0
  6
CONTINUOUS
 62
           6
100
AcDbSpline
210
0.0
220
0.0
230
1.0
 70
           0
 71
           4
 72
          11
 73
           7
 74
           9
 42
0.00000000001
 43
0.00000000001
 44
0.00000000001
 40
0.0
 40
0.0
 40
0.0
 40
0.0
 40
0.1100407911780815
 40
0.1661250855104781
 40
0.2226814080606981
 40
0.3321539517112033
 40
0.3321539517112033
 40
0.3321539517112033
 40
0.3321539517112033
 10
30.50160409649061
 20
-1318.51905997161
 30
0.0
 10
30.515988295562689
 20
-1318.466324540309
 30
0.0
 10
30.529886402513512
 20
-1318.412718043259
 30
0.0
 10
30.543241361497621
 20
-1318.358247012965
 30
0.0
 10
30.556708721244831
 20
-1318.303317532339
 30
0.0
 10
30.56916511080453
 20
-1318.24937957264
 30
0.0
 10
30.58069254597558
 20
-1318.1965066671651
 30
0.0
 11
30.50160409649061
 21
-1318.51905997161
 31
0.0
 11
30.519728241373951
 21
-1318.4514348262571
 31
0.0
 11
30.532673859815077
 21
-1318.4009977769329
 31
0.0
 11
30.538113944355221
 21
-1318.3791163914634
 31
0.0
 11
30.543231468267436
 21
-1318.3582873646005
 31
0.0
 11
30.548393500597125
 21
-1318.3371874944444
 31
0.0
 11
30.553777537603711
 21
-1318.3149095667529
 31
0.0
 11
30.56560263368975
 21
-1318.2642983782309
 31
0.0
 11
30.58069254597558
 21
-1318.1965066671651
 31
0.0
  0
SPLINE
  5
415
100
AcDbEntity
  8
0
  6
CONTINUOUS
 62
           6
100
AcDbSpline
210
0.0
220
0.0
230
1.0
 70
           0
 71
           4
 72
          11
 73
           7
 74
           9
 42
0.00000000001
 43
0.00000000001
 44
0.00000000001
 40
0.0
 40
0.0
 40
0.0
 40
0.0
 40
0.1095159834705594
 40
0.1660954929287226
 40
0.2202170368193172
 40
0.3321539574674729
 40
0.3321539574674729
 40
0.3321539574674729
 40
0.3321539574674729
 10
30.58069254597558
 20
-1315.2055108377949
 30
0.0
 10
30.569160592046959
 20
-1315.152617206124
 30
0.0
 10
30.556698947270888
 20
-1315.0986576483019
 30
0.0
 10
30.54322549713152
 20
-1315.0437057872609
 30
0.0
 10
30.530337369784782
 20
-1314.9911411823771
 30
0.0
 10
30.516490190323569
 20
-1314.9375330140399
 30
0.0
 10
30.50160409649061
 20
-1314.882957533348
 30
0.0
 11
30.58069254597558
 21
-1315.2055108377949
 31
0.0
 11
30.565591640109119
 21
-1315.1376723251126
 31
0.0
 11
30.553726986186231
 21
-1315.0869001265571
 31
0.0
 11
30.548312896224868
 21
-1315.0645003570507
 31
0.0
 11
30.54317037736611
 21
-1315.0434809796836
 31
0.0
 11
30.538338378783401
 21
-1315.0238116123073
 31
0.0
 11
30.533234417709743
 21
-1315.003261520199
 31
0.0
 11
30.520222754261351
 21
-1314.9524782429648
 31
0.0
 11
30.50160409649061
 21
-1314.882957533348
 31
0.0
  0
SPLINE
  5
414
100
AcDbEntity
  8
0
  6
CONTINUOUS
 62
           6
100
AcDbSpline
210
0.0
220
0.0
230
1.0
 70
           0
 71
           4
 72
          11
 73
           7
 74
           9
 42
0.00000000001
 43
0.00000000001
 44
0.00000000001
 40
0.0
 40
0.0
 40
0.0
 40
0.0
 40
0.0294083785292054
 40
0.0433863787341742
 40
0.0569783303906235
 40
0.0827954762323042
 40
0.0827954762323042
 40
0.0827954762323042
 40
0.0827954762323042
 10
30.50160409649061
 20
-1315.9672230841761
 30
0.0
 10
30.515988422944702
 20
-1315.963227456404
 30
0.0
 10
30.529886516560961
 20
-1315.9591658663339
 30
0.0
 10
30.543241361497621
 20
-1315.9550388084899
 30
0.0
 10
30.556227368372671
 20
-1315.9510257329521
 30
0.0
 10
30.568732248808828
 20
-1315.9469407040281
 30
0.0
 10
30.58069254597558
 20
-1315.942784267691
 30
0.0
 11
30.50160409649061
 21
-1315.9672230841761
 31
0.0
 11
30.519864021165485
 21
-1315.9620590353654
 31
0.0
 11
30.533116103133196
 21
-1315.9581436039787
 31
0.0
 11
30.53837696734054
 21
-1315.9565390283033
 31
0.0
 11
30.543394619292307
 21
-1315.9549914471177
 31
0.0
 11
30.548345294271279
 21
-1315.9534582556478
 31
0.0
 11
30.553600892595213
 21
-1315.9518111496923
 31
0.0
 11
30.565263856957621
 21
-1315.9480335031772
 31
0.0
 11
30.58069254597558
 21
-1315.942784267691
 31
0.0
  0
SPLINE
  5
413
100
AcDbEntity
  8
0
  6
CONTINUOUS
 62
           6
100
AcDbSpline
210
0.0
220
0.0
230
1.0
 70
           0
 71
           4
 72
          17
 73
          13
 74
          21
 42
0.00000000001
 43
0.00000000001
 44
0.00000000001
 40
0.0
 40
0.0
 40
0.0
 40
0.0
 40
0.0282269599171618
 40
0.0549885446714429
 40
0.0991184100886336
 40
0.167255267960749
 40
0.2539176019952324
 40
0.342380588738835
 40
0.4510175924649231
 40
0.5708865437738518
 40
0.6467510271357526
 40
0.764415317395974
 40
0.764415317395974
 40
0.764415317395974
 40
0.764415317395974
 10
30.58069254597558
 20
-1315.942784267691
 30
0.0
 10
30.591846962500771
 20
-1315.938907890581
 30
0.0
 10
30.604933576099938
 20
-1315.9289933989089
 30
0.0
 10
30.616397494962708
 20
-1315.9048115672399
 30
0.0
 10
30.635301502374659
 20
-1315.864935715832
 30
0.0
 10
30.64450175870752
 20
-1315.797422852731
 30
0.0
 10
30.644502071905659
 20
-1315.710760518697
 30
0.0
 10
30.644502391611699
 20
-1315.622297531954
 30
0.0
 10
30.634915313815782
 20
-1315.514084378789
 30
0.0
 10
30.61639702220964
 20
-1315.3956544908219
 30
0.0
 10
30.604676884424858
 20
-1315.320700783735
 30
0.0
 10
30.59143115478355
 20
-1315.2547656321181
 30
0.0
 10
30.58069254597558
 20
-1315.2055108377949
 30
0.0
 11
30.58069254597558
 21
-1315.942784267691
 31
0.0
 11
30.594429646578924
 21
-1315.9360962783364
 31
0.0
 11
30.603509818702797
 21
-1315.9278066660156
 31
0.0
 11
30.609572376970412
 21
-1315.9186846282234
 31
0.0
 11
30.614593917972975
 21
-1315.9086160075617
 31
0.0
 11
30.622911756043045
 21
-1315.8905461207355
 31
0.0
 11
30.63048081918631
 21
-1315.8709095629329
 31
0.0
 11
30.638280913288629
 21
-1315.8380617014975
 31
0.0
 11
30.642257947550878
 21
-1315.8032041307445
 31
0.0
 11
30.644221427946444
 21
-1315.7578485342708
 31
0.0
 11
30.644502062690307
 21
-1315.7133104330603
 31
0.0
 11
30.644352100635015
 21
-1315.6700557485644
 31
0.0
 11
30.643301426112288
 21
-1315.627409574606
 31
0.0
 11
30.639759888410634
 21
-1315.5730220893504
 31
0.0
 11
30.633674840019619
 21
-1315.5154554320065
 31
0.0
 11
30.624633853958969
 21
-1315.4494944683147
 31
0.0
 11
30.615440751305684
 21
-1315.3895388588603
 31
0.0
 11
30.610466488320174
 21
-1315.3580876377714
 31
0.0
 11
30.605316778544609
 21
-1315.3276782516575
 31
0.0
 11
30.594844527106183
 21
-1315.272755921
 31
0.0
 11
30.58069254597558
 21
-1315.2055108377949
 31
0.0
  0
SPLINE
  5
412
100
AcDbEntity
  8
0
  6
CONTINUOUS
 62
           6
100
AcDbSpline
210
0.0
220
0.0
230
1.0
 70
           0
 71
           4
 72
          11
 73
           7
 74
           9
 42
0.00000000001
 43
0.00000000001
 44
0.00000000001
 40
0.0
 40
0.0
 40
0.0
 40
0.0
 40
0.0258278328931992
 40
0.0394257043643678
 40
0.0529150258554646
 40
0.0827954737258655
 40
0.0827954737258655
 40
0.0827954737258655
 40
0.0827954737258655
 10
30.58069254597558
 20
-1317.459233237267
 30
0.0
 10
30.568727401940581
 20
-1317.455075116548
 30
0.0
 10
30.55621721061652
 20
-1317.4509884532949
 30
0.0
 10
30.54322549713061
 20
-1317.446973794001
 30
0.0
 10
30.530337494747531
 20
-1317.442991183191
 30
0.0
 10
30.51649032524665
 20
-1317.4389294652169
 30
0.0
 10
30.50160409649061
 20
-1317.4347944207809
 30
0.0
 11
30.58069254597558
 21
-1317.459233237267
 31
0.0
 11
30.565252727752089
 21
-1317.4539804094179
 31
0.0
 11
30.553551194776979
 21
-1317.4501908748607
 31
0.0
 11
30.548265219021594
 21
-1317.4485344365364
 31
0.0
 11
30.543330499541494
 21
-1317.4470062415221
 31
0.0
 11
30.538590726175389
 21
-1317.4455441989519
 31
0.0
 11
30.533655329812959
 21
-1317.444037471161
 31
0.0
 11
30.520352776212839
 21
-1317.4401004853155
 31
0.0
 11
30.50160409649061
 21
-1317.4347944207809
 31
0.0
  0
ARC
  5
411
100
AcDbEntity
  8
0
  6
CONTINUOUS
 62
           6
100
AcDbCircle
 10
24.325716473697
 20
-1316.787675419145
 40
6.453915263018
100
AcDbArc
 50
-45.627759168968
 51
-16.878798434127
  0
ARC
  5
410
100
AcDbEntity
  8
0
  6
CONTINUOUS
 62
           6
100
AcDbCircle
 10
24.325716473697
 20
-1316.614342085813
 40
6.453915263018
100
AcDbArc
 50
25.843283073717
 51
45.627759168981
  0
ARC
  5
40F
100
AcDbEntity
  8
0
  6
CONTINUOUS
 62
           6
100
AcDbCircle
 10
24.325716473697
 20
-1316.614342085813
 40
6.453915263019
100
AcDbArc
 50
22.714932869277
 51
25.843283073717
  0
ARC
  5
40E
100
AcDbEntity
  8
0
  6
CONTINUOUS
 62
           6
100
AcDbCircle
 10
24.325716473697
 20
-1316.614342085813
 40
6.453915263018
100
AcDbArc
 50
16.878798434134
 51
22.714932869277
  0
LINE
  5
40D
100
AcDbEntity
  8
1
  6
CONTINUOUS
 62
           6
100
AcDbLine
 10
18.27904980703
 20
-1318.326008752479
 11
28.27904980703
 21
-1318.326008752479
  0
LINE
  5
40C
100
AcDbEntity
  8
1
  6
CONTINUOUS
 62
           6
100
AcDbLine
 10
18.27904980703
 20
-1315.076008752479
 11
28.27904980703
 21
-1315.076008752479
  0
LINE
  5
40B
100
AcDbEntity
  8
0
  6
CONTINUOUS
 62
           6
100
AcDbLine
 10
28.83904980703
 20
-1312.001008752478
 11
28.83904980703
 21
-1321.401008752478
  0
LINE
  5
40A
100
AcDbEntity
  8
0
  6
CONTINUOUS
 62
           6
100
AcDbLine
 10
28.27904980703
 20
-1318.701008752479
 11
28.27904980703
 21
-1318.701008752479
  0
LINE
  5
409
100
AcDbEntity
  8
0
  6
CONTINUOUS
 62
           6
100
AcDbLine
 10
28.27904980703
 20
-1314.701008752479
 11
28.27904980703
 21
-1314.701008752479
  0
LINE
  5
408
100
AcDbEntity
  8
0
  6
CONTINUOUS
 62
           6
100
AcDbLine
 10
18.67904980703
 20
-1314.701008752479
 11
28.27904980703
 21
-1314.701008752479
  0
LINE
  5
407
100
AcDbEntity
  8
0
  6
CONTINUOUS
 62
           6
100
AcDbLine
 10
18.67904980703
 20
-1314.701008752479
 11
18.67904980703
 21
-1318.701008752479
  0
LINE
  5
406
100
AcDbEntity
  8
0
  6
CONTINUOUS
 62
           6
100
AcDbLine
 10
18.67904980703
 20
-1318.701008752479
 11
28.27904980703
 21
-1318.701008752479
  0
LINE
  5
405
100
AcDbEntity
  8
0
  6
CONTINUOUS
 62
           6
100
AcDbLine
 10
18.27904980703
 20
-1315.101008752478
 11
18.27904980703
 21
-1318.301008752478
  0
LINE
  5
404
100
AcDbEntity
  8
0
  6
CONTINUOUS
 62
           6
100
AcDbLine
 10
18.67904980703
 20
-1314.701008752479
 11
18.27904980703
 21
-1315.101008752478
  0
LINE
  5
403
100
AcDbEntity
  8
0
  6
CONTINUOUS
 62
           6
100
AcDbLine
 10
18.67904980703
 20
-1318.701008752479
 11
18.27904980703
 21
-1318.301008752478
  0
LINE
  5
402
100
AcDbEntity
  8
0
  6
CONTINUOUS
 62
           6
100
AcDbLine
 10
28.27904980703
 20
-1315.701008753048
 11
28.27904980703
 21
-1318.701008752479
  0
LINE
  5
401
100
AcDbEntity
  8
0
  6
CONTINUOUS
 62
           6
100
AcDbLine
 10
28.27904980703
 20
-1313.801008752828
 11
28.27904980703
 21
-1314.49574559517
  0
LINE
  5
400
100
AcDbEntity
  8
0
  6
CONTINUOUS
 62
           6
100
AcDbLine
 10
28.27904980703
 20
-1314.701008752479
 11
28.27904980703
 21
-1315.701008753048
  0
LINE
  5
3FF
100
AcDbEntity
  8
0
  6
CONTINUOUS
 62
           6
100
AcDbLine
 10
28.27904980703
 20
-1314.49574559517
 11
28.27904980703
 21
-1314.701008752479
  0
LINE
  5
3FE
100
AcDbEntity
  8
0
  6
CONTINUOUS
 62
           6
100
AcDbLine
 10
28.27904980703
 20
-1318.701008752479
 11
28.27904980703
 21
-1321.254933667155
  0
LINE
  5
3FD
100
AcDbEntity
  8
0
  6
CONTINUOUS
 62
           6
100
AcDbLine
 10
28.27904980703
 20
-1313.701008753348
 11
28.27904980703
 21
-1313.801008752828
  0
LINE
  5
3FC
100
AcDbEntity
  8
0
  6
CONTINUOUS
 62
           6
100
AcDbLine
 10
28.83904980703
 20
-1321.401008752478
 11
28.27904980703
 21
-1321.254933667155
  0
LINE
  5
3FB
100
AcDbEntity
  8
0
  6
CONTINUOUS
 62
           6
100
AcDbLine
 10
28.27904980703
 20
-1312.147083837802
 11
28.27904980703
 21
-1313.701008753348
  0
LINE
  5
3FA
100
AcDbEntity
  8
0
  6
CONTINUOUS
 62
           6
100
AcDbLine
 10
28.83904980703
 20
-1312.001008752478
 11
28.27904980703
 21
-1312.147083837802
  0
LINE
  5
3F9
100
AcDbEntity
  8
0
  6
CONTINUOUS
 62
           6
100
AcDbLine
 10
30.501604096491
 20
-1318.661557564009
 11
30.501604096491
 21
-1318.51905997161
  0
LINE
  5
3F8
100
AcDbEntity
  8
0
  6
CONTINUOUS
 62
           6
100
AcDbLine
 10
30.501604096491
 20
-1314.882957533348
 11
30.501604096491
 21
-1314.740459940948
  0
LINE
  5
3F7
100
AcDbEntity
  8
0
  6
CONTINUOUS
 62
           6
100
AcDbLine
 10
30.501604096491
 20
-1317.434794420781
 11
30.501604096491
 21
-1315.967223084176
  0
LINE
  5
3F6
100
AcDbEntity
  8
1
  6
DOT_CENTER
 62
           6
100
AcDbLine
 10
15.673252011382
 20
-1316.701008752479
 11
34.673252011382
 21
-1316.701008752479
  0
ENDBLK
  5
418
100
AcDbEntity
  8
0
100
AcDbBlockEnd
  0
BLOCK
  5
78
100
AcDbEntity
  8
0
100
AcDbBlockBegin
  2
_X___X__24
 70
           0
 10
0.0
 20
0.0
 30
0.0
  3
_X___X__24
  1

  0
LINE
  5
456
100
AcDbEntity
  8
0
  6
CONTINUOUS
 62
           4
100
AcDbLine
 10
32.479049807031
 20
-1326.701008752531
 11
32.479049807031
 21
-1322.701008752531
  0
LINE
  5
455
100
AcDbEntity
  8
0
  6
CONTINUOUS
 62
           4
100
AcDbLine
 10
31.27904980703
 20
-1324.201008752531
 11
31.27904980703
 21
-1326.701008752531
  0
LINE
  5
454
100
AcDbEntity
  8
0
  6
CONTINUOUS
 62
           4
100
AcDbLine
 10
31.27904980703
 20
-1326.701008752531
 11
32.479049807031
 21
-1326.701008752531
  0
LINE
  5
453
100
AcDbEntity
  8
0
  6
CONTINUOUS
 62
           4
100
AcDbLine
 10
32.479049807031
 20
-1331.701008752531
 11
31.27904980703
 21
-1331.701008752531
  0
LINE
  5
452
100
AcDbEntity
  8
0
  6
CONTINUOUS
 62
           4
100
AcDbLine
 10
32.479049807031
 20
-1335.201008752531
 11
32.479049807042
 21
-1333.251008752699
  0
LINE
  5
451
100
AcDbEntity
  8
0
  6
CONTINUOUS
 62
           4
100
AcDbLine
 10
32.479049807042
 20
-1333.251008752699
 11
32.479049807031
 21
-1331.701008752531
  0
LINE
  5
450
100
AcDbEntity
  8
0
  6
CONTINUOUS
 62
           4
100
AcDbLine
 10
32.479049807031
 20
-1335.701008752531
 11
32.479049807031
 21
-1335.201008752531
  0
LINE
  5
44F
100
AcDbEntity
  8
0
  6
CONTINUOUS
 62
           4
100
AcDbLine
 10
31.719983864241
 20
-1335.701008752718
 11
32.479049807031
 21
-1335.701008752531
  0
LINE
  5
44E
100
AcDbEntity
  8
0
  6
CONTINUOUS
 62
           4
100
AcDbLine
 10
30.777680460852
 20
-1335.701008752718
 11
31.577680460852
 21
-1335.701008752718
  0
LINE
  5
44D
100
AcDbEntity
  8
0
  6
CONTINUOUS
 62
           4
100
AcDbLine
 10
31.577680460852
 20
-1335.701008752718
 11
31.719983864241
 21
-1335.701008752718
  0
LINE
  5
44C
100
AcDbEntity
  8
0
  6
CONTINUOUS
 62
           4
100
AcDbLine
 10
31.27904980703
 20
-1331.701008752531
 11
31.27904980703
 21
-1334.201008752531
  0
LINE
  5
44B
100
AcDbEntity
  8
0
  6
CONTINUOUS
 62
           4
100
AcDbLine
 10
27.77904980703
 20
-1324.751008752532
 11
27.77904980703
 21
-1324.201008752531
  0
LINE
  5
44A
100
AcDbEntity
  8
0
  6
CONTINUOUS
 62
           4
100
AcDbLine
 10
26.27904980703
 20
-1315.201008753348
 11
26.27904980703
 21
-1322.701008752531
  0
LINE
  5
449
100
AcDbEntity
  8
0
  6
CONTINUOUS
 62
           4
100
AcDbLine
 10
26.27904980703
 20
-1305.590522750581
 11
26.27904980703
 21
-1307.701008753348
  0
LINE
  5
448
100
AcDbEntity
  8
0
  6
CONTINUOUS
 62
           4
100
AcDbLine
 10
26.27904980703
 20
-1299.701008753349
 11
26.27904980703
 21
-1301.701008753349
  0
LINE
  5
447
100
AcDbEntity
  8
0
  6
CONTINUOUS
 62
           4
100
AcDbLine
 10
26.27904980703
 20
-1301.701008753349
 11
26.27904980703
 21
-1302.201008753349
  0
LINE
  5
446
100
AcDbEntity
  8
0
  6
CONTINUOUS
 62
           4
100
AcDbLine
 10
26.27904980703
 20
-1302.201008753349
 11
26.27904980703
 21
-1303.811494756116
  0
LINE
  5
445
100
AcDbEntity
  8
0
  6
CONTINUOUS
 62
           4
100
AcDbLine
 10
26.27904980703
 20
-1309.201008753348
 11
26.27904980703
 21
-1311.311494756116
  0
LINE
  5
444
100
AcDbEntity
  8
0
  6
CONTINUOUS
 62
           4
100
AcDbLine
 10
26.27904980703
 20
-1307.701008753348
 11
26.27904980703
 21
-1309.201008753348
  0
LINE
  5
443
100
AcDbEntity
  8
0
  6
CONTINUOUS
 62
           4
100
AcDbLine
 10
26.27904980703
 20
-1304.218508753349
 11
26.27904980703
 21
-1304.471008753349
  0
LINE
  5
442
100
AcDbEntity
  8
0
  6
CONTINUOUS
 62
           4
100
AcDbLine
 10
26.27904980703
 20
-1303.811494756116
 11
26.27904980703
 21
-1304.13022002529
  0
LINE
  5
441
100
AcDbEntity
  8
0
  6
CONTINUOUS
 62
           4
100
AcDbLine
 10
26.27904980703
 20
-1304.13022002529
 11
26.27904980703
 21
-1304.218508753349
  0
LINE
  5
440
100
AcDbEntity
  8
0
  6
CONTINUOUS
 62
           4
100
AcDbLine
 10
26.27904980703
 20
-1304.471008753349
 11
26.27904980703
 21
-1304.701008753348
  0
LINE
  5
43F
100
AcDbEntity
  8
0
  6
CONTINUOUS
 62
           4
100
AcDbLine
 10
26.27904980703
 20
-1305.271797481406
 11
26.27904980703
 21
-1305.590522750581
  0
LINE
  5
43E
100
AcDbEntity
  8
0
  6
CONTINUOUS
 62
           4
100
AcDbLine
 10
26.27904980703
 20
-1304.701008753348
 11
26.27904980703
 21
-1304.931008753349
  0
LINE
  5
43D
100
AcDbEntity
  8
0
  6
CONTINUOUS
 62
           4
100
AcDbLine
 10
26.27904980703
 20
-1304.931008753349
 11
26.27904980703
 21
-1305.183508753348
  0
LINE
  5
43C
100
AcDbEntity
  8
0
  6
CONTINUOUS
 62
           4
100
AcDbLine
 10
26.27904980703
 20
-1305.183508753348
 11
26.27904980703
 21
-1305.271797481406
  0
LINE
  5
43B
100
AcDbEntity
  8
0
  6
CONTINUOUS
 62
           4
100
AcDbLine
 10
26.27904980703
 20
-1311.718508753349
 11
26.27904980703
 21
-1311.971008753349
  0
LINE
  5
43A
100
AcDbEntity
  8
0
  6
CONTINUOUS
 62
           4
100
AcDbLine
 10
26.27904980703
 20
-1311.311494756116
 11
26.27904980703
 21
-1311.63022002529
  0
LINE
  5
439
100
AcDbEntity
  8
0
  6
CONTINUOUS
 62
           4
100
AcDbLine
 10
26.27904980703
 20
-1311.63022002529
 11
26.27904980703
 21
-1311.718508753349
  0
LINE
  5
438
100
AcDbEntity
  8
0
  6
CONTINUOUS
 62
           4
100
AcDbLine
 10
26.27904980703
 20
-1311.971008753349
 11
26.27904980703
 21
-1312.201008753348
  0
LINE
  5
437
100
AcDbEntity
  8
0
  6
CONTINUOUS
 62
           4
100
AcDbLine
 10
26.27904980703
 20
-1313.090522750581
 11
26.27904980703
 21
-1315.201008753348
  0
LINE
  5
436
100
AcDbEntity
  8
0
  6
CONTINUOUS
 62
           4
100
AcDbLine
 10
26.27904980703
 20
-1312.771797481406
 11
26.27904980703
 21
-1313.090522750581
  0
LINE
  5
435
100
AcDbEntity
  8
0
  6
CONTINUOUS
 62
           4
100
AcDbLine
 10
26.27904980703
 20
-1312.201008753348
 11
26.27904980703
 21
-1312.431008753349
  0
LINE
  5
434
100
AcDbEntity
  8
0
  6
CONTINUOUS
 62
           4
100
AcDbLine
 10
26.27904980703
 20
-1312.431008753349
 11
26.27904980703
 21
-1312.683508753348
  0
LINE
  5
433
100
AcDbEntity
  8
0
  6
CONTINUOUS
 62
           4
100
AcDbLine
 10
26.27904980703
 20
-1312.683508753348
 11
26.27904980703
 21
-1312.771797481406
  0
LINE
  5
432
100
AcDbEntity
  8
0
  6
CONTINUOUS
 62
           4
100
AcDbLine
 10
26.27904980703
 20
-1322.701008752531
 11
28.27904980703
 21
-1322.701008752531
  0
LINE
  5
431
100
AcDbEntity
  8
0
  6
CONTINUOUS
 62
           4
100
AcDbLine
 10
28.27904980703
 20
-1315.701008753048
 11
28.27904980703
 21
-1318.701008752479
  0
LINE
  5
430
100
AcDbEntity
  8
0
  6
CONTINUOUS
 62
           4
100
AcDbLine
 10
28.27904980703
 20
-1313.801008752828
 11
28.27904980703
 21
-1314.49574559517
  0
LINE
  5
42F
100
AcDbEntity
  8
0
  6
CONTINUOUS
 62
           4
100
AcDbLine
 10
28.27904980703
 20
-1314.701008752479
 11
28.27904980703
 21
-1315.701008753048
  0
LINE
  5
42E
100
AcDbEntity
  8
0
  6
CONTINUOUS
 62
           4
100
AcDbLine
 10
28.27904980703
 20
-1314.49574559517
 11
28.27904980703
 21
-1314.701008752479
  0
LINE
  5
42D
100
AcDbEntity
  8
0
  6
CONTINUOUS
 62
           4
100
AcDbLine
 10
28.27904980703
 20
-1321.254933667155
 11
28.27904980703
 21
-1322.701008752531
  0
LINE
  5
42C
100
AcDbEntity
  8
0
  6
CONTINUOUS
 62
           4
100
AcDbLine
 10
28.27904980703
 20
-1318.701008752479
 11
28.27904980703
 21
-1321.254933667155
  0
LINE
  5
42B
100
AcDbEntity
  8
0
  6
CONTINUOUS
 62
           4
100
AcDbLine
 10
28.27904980703
 20
-1313.701008753348
 11
28.27904980703
 21
-1313.801008752828
  0
LINE
  5
42A
100
AcDbEntity
  8
0
  6
CONTINUOUS
 62
           4
100
AcDbLine
 10
27.77904980703
 20
-1324.201008752531
 11
31.27904980703
 21
-1324.201008752531
  0
LINE
  5
429
100
AcDbEntity
  8
0
  6
CONTINUOUS
 62
           4
100
AcDbLine
 10
27.77904980703
 20
-1326.15100875253
 11
27.77904980703
 21
-1324.751008752532
  0
LINE
  5
428
100
AcDbEntity
  8
0
  6
CONTINUOUS
 62
           4
100
AcDbLine
 10
28.27904980703
 20
-1312.147083837802
 11
28.27904980703
 21
-1313.701008753348
  0
LINE
  5
427
100
AcDbEntity
  8
0
  6
CONTINUOUS
 62
           4
100
AcDbLine
 10
31.27904980703
 20
-1299.701008753349
 11
26.27904980703
 21
-1299.701008753349
  0
LINE
  5
426
100
AcDbEntity
  8
0
  6
CONTINUOUS
 62
           4
100
AcDbLine
 10
32.479049807031
 20
-1322.701008752531
 11
28.27904980703
 21
-1322.701008752531
  0
LINE
  5
425
100
AcDbEntity
  8
0
  6
CONTINUOUS
 62
           4
100
AcDbLine
 10
28.27904980703
 20
-1307.801008752828
 11
28.27904980703
 21
-1312.147083837802
  0
LINE
  5
424
100
AcDbEntity
  8
0
  6
CONTINUOUS
 62
           4
100
AcDbLine
 10
28.27904980703
 20
-1302.201008753349
 11
28.27904980703
 21
-1307.801008752828
  0
LINE
  5
423
100
AcDbEntity
  8
0
  6
CONTINUOUS
 62
           4
100
AcDbLine
 10
28.27904980703
 20
-1301.201008753349
 11
30.27904980703
 21
-1301.201008753349
  0
LINE
  5
422
100
AcDbEntity
  8
0
  6
CONTINUOUS
 62
           4
100
AcDbLine
 10
28.27904980703
 20
-1301.201008753349
 11
28.27904980703
 21
-1301.946954699294
  0
LINE
  5
421
100
AcDbEntity
  8
0
  6
CONTINUOUS
 62
           4
100
AcDbLine
 10
28.27904980703
 20
-1301.946954699294
 11
28.27904980703
 21
-1302.201008753349
  0
LINE
  5
420
100
AcDbEntity
  8
0
  6
CONTINUOUS
 62
           4
100
AcDbLine
 10
26.27904980703
 20
-1335.701008752531
 11
30.777680460852
 21
-1335.701008752718
  0
LINE
  5
41F
100
AcDbEntity
  8
0
  6
CONTINUOUS
 62
           4
100
AcDbLine
 10
27.77904980703
 20
-1332.251008752532
 11
27.77904980703
 21
-1326.15100875253
  0
LINE
  5
41E
100
AcDbEntity
  8
0
  6
CONTINUOUS
 62
           4
100
AcDbLine
 10
27.77904980703
 20
-1334.201008752531
 11
27.77904980703
 21
-1333.65100875253
  0
LINE
  5
41D
100
AcDbEntity
  8
0
  6
CONTINUOUS
 62
           4
100
AcDbLine
 10
27.77904980703
 20
-1333.65100875253
 11
27.77904980703
 21
-1332.251008752532
  0
LINE
  5
41C
100
AcDbEntity
  8
0
  6
CONTINUOUS
 62
           4
100
AcDbLine
 10
26.27904980703
 20
-1322.701008752531
 11
26.27904980703
 21
-1335.701008752531
  0
LINE
  5
41B
100
AcDbEntity
  8
0
  6
CONTINUOUS
 62
           4
100
AcDbLine
 10
31.27904980703
 20
-1334.201008752531
 11
27.77904980703
 21
-1334.201008752531
  0
LINE
  5
41A
100
AcDbEntity
  8
0
  6
CONTINUOUS
 62
           4
100
AcDbLine
 10
31.27904980703
 20
-1299.701008753349
 11
31.27904980703
 21
-1301.201008753349
  0
LINE
  5
419
100
AcDbEntity
  8
0
  6
CONTINUOUS
 62
           4
100
AcDbLine
 10
30.27904980703
 20
-1301.201008753349
 11
31.27904980703
 21
-1301.201008753349
  0
ENDBLK
  5
457
100
AcDbEntity
  8
0
100
AcDbBlockEnd
  0
BLOCK
  5
7A
100
AcDbEntity
  8
0
100
AcDbBlockBegin
  2
_X___XASSY
 70
           0
 10
0.0
 20
0.0
 30
0.0
  3
_X___XASSY
  1

  0
INSERT
  5
7B
100
AcDbEntity
  8
0
100
AcDbBlockReference
  2
M3_M_2
 10
0.0
 20
0.0
  0
INSERT
  5
7C
100
AcDbEntity
  8
0
100
AcDbBlockReference
  2
_A______
 10
0.0
 20
0.0
  0
INSERT
  5
7D
100
AcDbEntity
  8
0
100
AcDbBlockReference
  2
M3_M_2_1
 10
0.0
 20
0.0
  0
INSERT
  5
7E
100
AcDbEntity
  8
0
100
AcDbBlockReference
  2
_K_C_H
 10
0.0
 20
0.0
  0
INSERT
  5
7F
100
AcDbEntity
  8
0
100
AcDbBlockReference
  2
M4_TORASU_1
 10
0.0
 20
0.0
  0
INSERT
  5
80
100
AcDbEntity
  8
0
100
AcDbBlockReference
  2
_X___X__24
 10
0.0
 20
0.0
  0
ENDBLK
  5
458
100
AcDbEntity
  8
0
100
AcDbBlockEnd
  0
BLOCK
  5
82
100
AcDbEntity
  8
0
100
AcDbBlockBegin
  2
____ASSY_S_J__25
 70
           0
 10
0.0
 20
0.0
 30
0.0
  3
____ASSY_S_J__25
  1

  0
INSERT
  5
83
100
AcDbEntity
  8
0
100
AcDbBlockReference
  2
_X___C____ASSY__23
 10
0.0
 20
0.0
  0
INSERT
  5
84
100
AcDbEntity
  8
0
100
AcDbBlockReference
  2
_A____ASSY
 10
0.0
 20
0.0
  0
INSERT
  5
85
100
AcDbEntity
  8
0
100
AcDbBlockReference
  2
_X___XASSY
 10
0.0
 20
0.0
  0
ENDBLK
  5
459
100
AcDbEntity
  8
0
100
AcDbBlockEnd
  0
BLOCK
  5
87
100
AcDbEntity
  8
0
100
AcDbBlockBegin
  2
A1__26
 70
           0
 10
0.0
 20
0.0
 30
0.0
  3
A1__26
  1

  0
INSERT
  5
88
100
AcDbEntity
  8
0
100
AcDbBlockReference
  2
_X_G_B_P___S__ASSY
 10
0.0
 20
0.0
  0
INSERT
  5
89
100
AcDbEntity
  8
0
100
AcDbBlockReference
  2
____ASSY_S_J__25
 10
0.0
 20
0.0
  0
ENDBLK
  5
45A
100
AcDbEntity
  8
0
100
AcDbBlockEnd
  0
BLOCK
  5
8B
100
AcDbEntity
  8
0
100
AcDbBlockBegin
  2
____1__27
 70
           0
 10
0.0
 20
0.0
 30
0.0
  3
____1__27
  1

  0
LINE
  5
45F
100
AcDbEntity
  8
1
  6
CONTINUOUS
 62
           2
100
AcDbLine
 10
28.27904980703
 20
-1299.701008752531
 11
28.27904980703
 21
-1335.201008752531
  0
LINE
  5
45E
100
AcDbEntity
  8
1
  6
CONTINUOUS
 62
           7
100
AcDbLine
 10
35.779049807031
 20
-1299.701008752531
 11
35.779049807031
 21
-1335.201008752531
  0
LINE
  5
45D
100
AcDbEntity
  8
1
  6
CONTINUOUS
 62
           7
100
AcDbLine
 10
35.779049807031
 20
-1335.201008752531
 11
26.27904980703
 21
-1335.201008752531
  0
LINE
  5
45C
100
AcDbEntity
  8
1
  6
CONTINUOUS
 62
           7
100
AcDbLine
 10
26.27904980703
 20
-1335.201008752531
 11
26.27904980703
 21
-1299.701008752531
  0
LINE
  5
45B
100
AcDbEntity
  8
1
  6
CONTINUOUS
 62
           7
100
AcDbLine
 10
26.27904980703
 20
-1299.701008752531
 11
35.779049807031
 21
-1299.701008752531
  0
INSERT
  5
8C
100
AcDbEntity
  8
0
100
AcDbBlockReference
  2
A1__26
 10
0.0
 20
0.0
  0
ENDBLK
  5
460
100
AcDbEntity
  8
0
100
AcDbBlockEnd
  0
BLOCK
  5
8E
100
AcDbEntity
  8
0
100
AcDbBlockBegin
  2
______28
 70
           0
 10
0.0
 20
0.0
 30
0.0
  3
______28
  1

  0
LINE
  5
464
100
AcDbEntity
  8
1
  6
CONTINUOUS
 62
           2
100
AcDbLine
 10
47.729049807031
 20
-1316.901008752477
 11
47.729049807031
 21
-1329.701008752477
  0
LINE
  5
463
100
AcDbEntity
  8
1
  6
CONTINUOUS
 62
           2
100
AcDbLine
 10
47.729049807031
 20
-1329.701008752477
 11
45.729049807031
 21
-1329.701008752477
  0
LINE
  5
462
100
AcDbEntity
  8
1
  6
CONTINUOUS
 62
           2
100
AcDbLine
 10
45.729049807031
 20
-1329.701008752477
 11
45.729049807031
 21
-1316.901008752477
  0
LINE
  5
461
100
AcDbEntity
  8
1
  6
CONTINUOUS
 62
           2
100
AcDbLine
 10
45.729049807031
 20
-1316.901008752477
 11
47.729049807031
 21
-1316.901008752477
  0
ENDBLK
  5
465
100
AcDbEntity
  8
0
100
AcDbBlockEnd
  0
BLOCK
  5
90
100
AcDbEntity
  8
0
100
AcDbBlockBegin
  2
_G_E
 70
           0
 10
0.0
 20
0.0
 30
0.0
  3
_G_E
  1

  0
ARC
  5
497
100
AcDbEntity
  8
1
  6
CONTINUOUS
 62
           2
100
AcDbCircle
 10
25.77904980703
 20
-1354.80099875253
 40
0.5
100
AcDbArc
 50
-90.0
 51
0.0
  0
ARC
  5
496
100
AcDbEntity
  8
1
  6
CONTINUOUS
 62
           2
100
AcDbCircle
 10
26.77904980703
 20
-1340.10100875253
 40
0.5
100
AcDbArc
 50
90.0
 51
180.0
  0
ARC
  5
495
100
AcDbEntity
  8
1
  6
CONTINUOUS
 62
           2
100
AcDbCircle
 10
26.77904980703
 20
-1337.451008752531
 40
0.5
100
AcDbArc
 50
180.0
 51
-90.0
  0
ARC
  5
494
100
AcDbEntity
  8
1
  6
CONTINUOUS
 62
           2
100
AcDbCircle
 10
2.429049807029
 20
-1346.80099875253
 40
0.5
100
AcDbArc
 50
0.0
 51
90.0
  0
ARC
  5
493
100
AcDbEntity
  8
1
  6
CONTINUOUS
 62
           2
100
AcDbCircle
 10
1.779079807029
 20
-1346.80099875253
 40
0.5
100
AcDbArc
 50
90.0
 51
180.0
  0
ARC
  5
492
100
AcDbEntity
  8
1
  6
CONTINUOUS
 62
           2
100
AcDbCircle
 10
1.779079807029
 20
-1354.80099875253
 40
0.5
100
AcDbArc
 50
180.0
 51
-90.0
  0
ARC
  5
491
100
AcDbEntity
  8
1
  6
CONTINUOUS
 62
           2
100
AcDbCircle
 10
1.779079807029
 20
-1295.80102875253
 40
0.5
100
AcDbArc
 50
180.0
 51
-90.0
  0
ARC
  5
490
100
AcDbEntity
  8
1
  6
CONTINUOUS
 62
           2
100
AcDbCircle
 10
2.429049807029
 20
-1295.80102875253
 40
0.5
100
AcDbArc
 50
-90.0
 51
0.0
  0
ARC
  5
48F
100
AcDbEntity
  8
1
  6
CONTINUOUS
 62
           2
100
AcDbCircle
 10
1.779079807029
 20
-1287.80104815253
 40
0.5
100
AcDbArc
 50
90.000068755042
 51
180.0
  0
ARC
  5
48E
100
AcDbEntity
  8
1
  6
CONTINUOUS
 62
           2
100
AcDbCircle
 10
25.77904980703
 20
-1287.801019352532
 40
0.5
100
AcDbArc
 50
0.0
 51
90.000068755042
  0
ARC
  5
48D
100
AcDbEntity
  8
1
  6
CONTINUOUS
 62
           2
100
AcDbCircle
 10
50.779079806969
 20
-1339.10100875253
 40
0.5
100
AcDbArc
 50
-90.0
 51
0.000301555963
  0
ARC
  5
48C
100
AcDbEntity
  8
1
  6
CONTINUOUS
 62
           2
100
AcDbCircle
 10
40.779069807029
 20
-1337.451008752531
 40
0.5
100
AcDbArc
 50
-90.0
 51
0.0
  0
ARC
  5
48B
100
AcDbEntity
  8
1
  6
CONTINUOUS
 62
           2
100
AcDbCircle
 10
43.279079807029
 20
-1337.451008752531
 40
0.5
100
AcDbArc
 50
180.0
 51
-90.0
  0
ARC
  5
48A
100
AcDbEntity
  8
1
  6
CONTINUOUS
 62
           2
100
AcDbCircle
 10
49.279049807029
 20
-1337.451008752531
 40
0.5
100
AcDbArc
 50
-90.0
 51
0.0
  0
ARC
  5
489
100
AcDbEntity
  8
1
  6
CONTINUOUS
 62
           2
100
AcDbCircle
 10
41.779069807029
 20
-1335.80103507089
 40
0.5
100
AcDbArc
 50
90.004953445666
 51
180.0
  0
ARC
  5
488
100
AcDbEntity
  8
1
  6
CONTINUOUS
 62
           2
100
AcDbCircle
 10
50.779062438594
 20
-1335.80100875253
 40
0.5
100
AcDbArc
 50
0.000301555937
 51
90.0
  0
ARC
  5
487
100
AcDbEntity
  8
1
  6
CONTINUOUS
 62
           2
100
AcDbCircle
 10
43.279079807029
 20
-1336.80099875253
 40
0.5
100
AcDbArc
 50
90.0
 51
180.0
  0
ARC
  5
486
100
AcDbEntity
  8
1
  6
CONTINUOUS
 62
           2
100
AcDbCircle
 10
49.279049807029
 20
-1336.80100875253
 40
0.5
100
AcDbArc
 50
0.0
 51
90.0
  0
ARC
  5
485
100
AcDbEntity
  8
1
  6
CONTINUOUS
 62
           2
100
AcDbCircle
 10
44.079059807029
 20
-1336.10099875253
 40
0.2
100
AcDbArc
 50
-90.0
 51
0.0
  0
ARC
  5
484
100
AcDbEntity
  8
1
  6
CONTINUOUS
 62
           2
100
AcDbCircle
 10
48.479079807029
 20
-1336.10100875253
 40
0.2
100
AcDbArc
 50
180.0
 51
-90.0
  0
ARC
  5
483
100
AcDbEntity
  8
1
  6
CONTINUOUS
 62
           2
100
AcDbCircle
 10
48.479079807029
 20
-1335.501008752531
 40
0.200000000001
100
AcDbArc
 50
90.0
 51
180.0
  0
ARC
  5
482
100
AcDbEntity
  8
1
  6
CONTINUOUS
 62
           2
100
AcDbCircle
 10
44.079059807029
 20
-1335.50083622658
 40
0.2
100
AcDbArc
 50
0.0
 51
90.004953445901
  0
LINE
  5
481
100
AcDbEntity
  8
0
  6
CONTINUOUS
 62
           2
100
AcDbLine
 10
24.629069807029
 20
-1288.951038752531
 11
24.629069807029
 21
-1353.650998752531
  0
LINE
  5
480
100
AcDbEntity
  8
0
  6
CONTINUOUS
 62
           2
100
AcDbLine
 10
51.279079806962
 20
-1339.101006120958
 11
51.279062438587
 21
-1335.801006120958
  0
LINE
  5
47F
100
AcDbEntity
  8
0
  6
CONTINUOUS
 62
           2
100
AcDbLine
 10
48.479079807029
 20
-1336.30100875253
 11
49.279049807029
 21
-1336.30100875253
  0
LINE
  5
47E
100
AcDbEntity
  8
0
  6
CONTINUOUS
 62
           2
100
AcDbLine
 10
48.279079807029
 20
-1335.501008752531
 11
48.279079807029
 21
-1336.10100875253
  0
LINE
  5
47D
100
AcDbEntity
  8
0
  6
CONTINUOUS
 62
           2
100
AcDbLine
 10
49.779049807029
 20
-1336.80100875253
 11
49.779049807029
 21
-1337.451008752531
  0
LINE
  5
47C
100
AcDbEntity
  8
0
  6
CONTINUOUS
 62
           2
100
AcDbLine
 10
49.279049807029
 20
-1337.951008752531
 11
43.279079807029
 21
-1337.951008752531
  0
LINE
  5
47B
100
AcDbEntity
  8
0
  6
CONTINUOUS
 62
           2
100
AcDbLine
 10
43.279079807029
 20
-1336.30099875253
 11
44.079059807029
 21
-1336.30099875253
  0
LINE
  5
47A
100
AcDbEntity
  8
0
  6
CONTINUOUS
 62
           2
100
AcDbLine
 10
42.779079807029
 20
-1337.451008752531
 11
42.779079807029
 21
-1336.80099875253
  0
LINE
  5
479
100
AcDbEntity
  8
0
  6
CONTINUOUS
 62
           2
100
AcDbLine
 10
25.779049207029
 20
-1287.301019352532
 11
1.779079207028
 21
-1287.30104815253
  0
LINE
  5
478
100
AcDbEntity
  8
0
  6
CONTINUOUS
 62
           2
100
AcDbLine
 10
1.279079807029
 20
-1287.80104815253
 11
1.279079807029
 21
-1295.80102875253
  0
LINE
  5
477
100
AcDbEntity
  8
0
  6
CONTINUOUS
 62
           2
100
AcDbLine
 10
2.929049807029
 20
-1288.951038752531
 11
24.629069807029
 21
-1288.951038752531
  0
LINE
  5
476
100
AcDbEntity
  8
0
  6
CONTINUOUS
 62
           2
100
AcDbLine
 10
2.929049807029
 20
-1295.80102875253
 11
2.929049807029
 21
-1288.951038752531
  0
LINE
  5
475
100
AcDbEntity
  8
0
  6
CONTINUOUS
 62
           2
100
AcDbLine
 10
1.779079807029
 20
-1296.30102875253
 11
2.429049807029
 21
-1296.30102875253
  0
LINE
  5
474
100
AcDbEntity
  8
0
  6
CONTINUOUS
 62
           2
100
AcDbLine
 10
43.818496807277
 20
-1335.30085875253
 11
41.779026580061
 21
-1335.301035072759
  0
LINE
  5
473
100
AcDbEntity
  8
0
  6
CONTINUOUS
 62
           2
100
AcDbLine
 10
26.27904980703
 20
-1354.80099875253
 11
26.27904980703
 21
-1340.10100875253
  0
LINE
  5
472
100
AcDbEntity
  8
0
  6
CONTINUOUS
 62
           2
100
AcDbLine
 10
26.77904980703
 20
-1339.60100875253
 11
50.779079806969
 21
-1339.60100875253
  0
LINE
  5
471
100
AcDbEntity
  8
0
  6
CONTINUOUS
 62
           2
100
AcDbLine
 10
44.079042516241
 20
-1335.300836227329
 11
43.818496807277
 21
-1335.30085875253
  0
LINE
  5
470
100
AcDbEntity
  8
0
  6
CONTINUOUS
 62
           2
100
AcDbLine
 10
48.479079807029
 20
-1335.30100875253
 11
50.779062438594
 21
-1335.30100875253
  0
LINE
  5
46F
100
AcDbEntity
  8
0
  6
CONTINUOUS
 62
           2
100
AcDbLine
 10
44.279059807029
 20
-1335.30085875253
 11
44.279059807029
 21
-1335.300818935047
  0
LINE
  5
46E
100
AcDbEntity
  8
0
  6
CONTINUOUS
 62
           2
100
AcDbLine
 10
40.779069807029
 20
-1337.951008752531
 11
26.77904980703
 21
-1337.951008752531
  0
LINE
  5
46D
100
AcDbEntity
  8
0
  6
CONTINUOUS
 62
           2
100
AcDbLine
 10
41.279069807029
 20
-1335.80103507089
 11
41.279069807029
 21
-1337.451008752531
  0
LINE
  5
46C
100
AcDbEntity
  8
0
  6
CONTINUOUS
 62
           2
100
AcDbLine
 10
44.279059807029
 20
-1336.10099875253
 11
44.279059807029
 21
-1335.50083622658
  0
LINE
  5
46B
100
AcDbEntity
  8
0
  6
CONTINUOUS
 62
           2
100
AcDbLine
 10
1.279079807029
 20
-1346.80099875253
 11
1.279079807029
 21
-1354.80099875253
  0
LINE
  5
46A
100
AcDbEntity
  8
0
  6
CONTINUOUS
 62
           2
100
AcDbLine
 10
2.429049807029
 20
-1346.30099875253
 11
1.779079807029
 21
-1346.30099875253
  0
LINE
  5
469
100
AcDbEntity
  8
0
  6
CONTINUOUS
 62
           2
100
AcDbLine
 10
2.929049807029
 20
-1353.650998752531
 11
2.929049807029
 21
-1346.80099875253
  0
LINE
  5
468
100
AcDbEntity
  8
0
  6
CONTINUOUS
 62
           2
100
AcDbLine
 10
24.629069807029
 20
-1353.650998752531
 11
2.929049807029
 21
-1353.650998752531
  0
LINE
  5
467
100
AcDbEntity
  8
0
  6
CONTINUOUS
 62
           2
100
AcDbLine
 10
1.779079807029
 20
-1355.30099875253
 11
25.77904980703
 21
-1355.30099875253
  0
LINE
  5
466
100
AcDbEntity
  8
0
  6
CONTINUOUS
 62
           2
100
AcDbLine
 10
26.27904980703
 20
-1337.451008752531
 11
26.27904980703
 21
-1287.801019352532
  0
ENDBLK
  5
498
100
AcDbEntity
  8
0
100
AcDbBlockEnd
  0
BLOCK
  5
92
100
AcDbEntity
  8
0
100
AcDbBlockBegin
  2
___Q_E
 70
           0
 10
0.0
 20
0.0
 30
0.0
  3
___Q_E
  1

  0
ARC
  5
4CC
100
AcDbEntity
  8
1
  6
CONTINUOUS
 62
           2
100
AcDbCircle
 10
39.22903980703
 20
-1328.80068875253
 40
0.5
100
AcDbArc
 50
0.0
 51
90.0
  0
ARC
  5
4CB
100
AcDbEntity
  8
1
  6
CONTINUOUS
 62
           2
100
AcDbCircle
 10
38.22903980703
 20
-1328.80068875253
 40
0.5
100
AcDbArc
 50
90.0
 51
180.0
  0
ARC
  5
4CA
100
AcDbEntity
  8
1
  6
CONTINUOUS
 62
           2
100
AcDbCircle
 10
31.779319907471
 20
-1294.200898752531
 40
0.5
100
AcDbArc
 50
180.0
 51
-90.0
  0
ARC
  5
4C9
100
AcDbEntity
  8
1
  6
CONTINUOUS
 62
           2
100
AcDbCircle
 10
97.779259807029
 20
-1293.75090875253
 40
1.0
100
AcDbArc
 50
0.0
 51
90.0
  0
ARC
  5
4C8
100
AcDbEntity
  8
0
  6
CONTINUOUS
 62
           2
100
AcDbCircle
 10
32.279319907383
 20
-1293.75090875253
 40
1.0
100
AcDbArc
 50
90.0
 51
-179.999239870924
  0
ARC
  5
4C7
100
AcDbEntity
  8
0
  6
CONTINUOUS
 62
           2
100
AcDbCircle
 10
38.72903980703
 20
-1331.30088875253
 40
1.0
100
AcDbArc
 50
180.0
 51
-90.0
  0
ARC
  5
4C6
100
AcDbEntity
  8
0
  6
CONTINUOUS
 62
           2
100
AcDbCircle
 10
97.779259807029
 20
-1298.25088875253
 40
1.0
100
AcDbArc
 50
-90.0
 51
0.0
  0
ARC
  5
4C5
100
AcDbEntity
  8
0
  6
CONTINUOUS
 62
           2
100
AcDbCircle
 10
80.279299807029
 20
-1331.30088875253
 40
1.0
100
AcDbArc
 50
-90.0
 51
0.0
  0
ARC
  5
4C4
100
AcDbEntity
  8
0
  6
CONTINUOUS
 62
           2
100
AcDbCircle
 10
80.279299807029
 20
-1312.80087875253
 40
1.0
100
AcDbArc
 50
0.0
 51
90.0
  0
ARC
  5
4C3
100
AcDbEntity
  8
0
  6
CONTINUOUS
 62
           2
100
AcDbCircle
 10
87.27930980703
 20
-1298.25088875253
 40
1.0
100
AcDbArc
 50
-179.999999999947
 51
-90.0
  0
LINE
  5
4C2
100
AcDbEntity
  8
1
  6
CONTINUOUS
 62
           2
100
AcDbLine
 10
104.279269807029
 20
-1292.75090875253
 11
98.27930980703
 21
-1292.75090875253
  0
LINE
  5
4C1
100
AcDbEntity
  8
1
  6
CONTINUOUS
 62
           2
100
AcDbLine
 10
104.279269807029
 20
-1332.30088875253
 11
82.279269807029
 21
-1332.30088875253
  0
LINE
  5
4C0
100
AcDbEntity
  8
0
  6
CONTINUOUS
 62
           2
100
AcDbLine
 10
98.27930980703
 20
-1292.75090875253
 11
32.279319907383
 21
-1292.75090875253
  0
LINE
  5
4BF
100
AcDbEntity
  8
0
  6
CONTINUOUS
 62
           2
100
AcDbLine
 10
78.27930980703
 20
-1294.700898752531
 11
86.27930980703
 21
-1294.70089875253
  0
LINE
  5
4BE
100
AcDbEntity
  8
0
  6
CONTINUOUS
 62
           2
100
AcDbLine
 10
78.27930980703
 20
-1311.80087875253
 11
78.27930980703
 21
-1294.700898752531
  0
LINE
  5
4BD
100
AcDbEntity
  8
0
  6
CONTINUOUS
 62
           2
100
AcDbLine
 10
76.32927980703
 20
-1294.700898752531
 11
76.32927980703
 21
-1330.35088875253
  0
LINE
  5
4BC
100
AcDbEntity
  8
0
  6
CONTINUOUS
 62
           2
100
AcDbLine
 10
45.729049807031
 20
-1294.700898752531
 11
76.32927980703
 21
-1294.700898752531
  0
LINE
  5
4BB
100
AcDbEntity
  8
0
  6
CONTINUOUS
 62
           2
100
AcDbLine
 10
45.729049807031
 20
-1330.35088875253
 11
45.729049807031
 21
-1294.700898752531
  0
LINE
  5
4BA
100
AcDbEntity
  8
0
  6
CONTINUOUS
 62
           2
100
AcDbLine
 10
43.77904980703
 20
-1294.700898752531
 11
43.77904980703
 21
-1330.35088875253
  0
LINE
  5
4B9
100
AcDbEntity
  8
0
  6
CONTINUOUS
 62
           2
100
AcDbLine
 10
31.779319907471
 20
-1294.700898752531
 11
43.77904980703
 21
-1294.700898752531
  0
LINE
  5
4B8
100
AcDbEntity
  8
0
  6
CONTINUOUS
 62
           2
100
AcDbLine
 10
76.32927980703
 20
-1330.35088875253
 11
45.729049807031
 21
-1330.35088875253
  0
LINE
  5
4B7
100
AcDbEntity
  8
0
  6
CONTINUOUS
 62
           2
100
AcDbLine
 10
37.72903980703
 20
-1328.80068875253
 11
37.72903980703
 21
-1331.30088875253
  0
LINE
  5
4B6
100
AcDbEntity
  8
0
  6
CONTINUOUS
 62
           2
100
AcDbLine
 10
43.77904980703
 20
-1330.35088875253
 11
39.72903980703
 21
-1330.35085875253
  0
LINE
  5
4B5
100
AcDbEntity
  8
0
  6
CONTINUOUS
 62
           2
100
AcDbLine
 10
38.72903980703
 20
-1332.30088875253
 11
82.279269807029
 21
-1332.30088875253
  0
LINE
  5
4B4
100
AcDbEntity
  8
0
  6
CONTINUOUS
 62
           2
100
AcDbLine
 10
39.22903980703
 20
-1328.30068875253
 11
38.22903980703
 21
-1328.30068875253
  0
LINE
  5
4B3
100
AcDbEntity
  8
0
  6
CONTINUOUS
 62
           2
100
AcDbLine
 10
39.72903980703
 20
-1330.35085875253
 11
39.72903980703
 21
-1328.80068875253
  0
LINE
  5
4B2
100
AcDbEntity
  8
1
  6
CONTINUOUS
 62
           2
100
AcDbLine
 10
31.279319907471
 20
-1294.200898752531
 11
31.279319907471
 21
-1293.750922019285
  0
LINE
  5
4B1
100
AcDbEntity
  8
0
  6
CONTINUOUS
 62
           2
100
AcDbLine
 10
98.779259807029
 20
-1298.25088875253
 11
98.779259807029
 21
-1293.75090875253
  0
LINE
  5
4B0
100
AcDbEntity
  8
0
  6
CONTINUOUS
 62
           2
100
AcDbLine
 10
97.27928980703
 20
-1294.70089875253
 11
97.27928980703
 21
-1298.25089875253
  0
LINE
  5
4AF
100
AcDbEntity
  8
0
  6
CONTINUOUS
 62
           2
100
AcDbLine
 10
96.47948580703
 20
-1299.25088875253
 11
97.779259807029
 21
-1299.25088875253
  0
LINE
  5
4AE
100
AcDbEntity
  8
0
  6
CONTINUOUS
 62
           2
100
AcDbLine
 10
96.377025807078
 20
-1299.25088875253
 11
96.47948580703
 21
-1299.25088875253
  0
LINE
  5
4AD
100
AcDbEntity
  8
0
  6
CONTINUOUS
 62
           2
100
AcDbLine
 10
95.77928980703
 20
-1299.25088875253
 11
96.377025807078
 21
-1299.25088875253
  0
LINE
  5
4AC
100
AcDbEntity
  8
0
  6
CONTINUOUS
 62
           2
100
AcDbLine
 10
95.77928980703
 20
-1298.25089875253
 11
95.77928980703
 21
-1299.25088875253
  0
LINE
  5
4AB
100
AcDbEntity
  8
0
  6
CONTINUOUS
 62
           2
100
AcDbLine
 10
97.27928980703
 20
-1298.25089875253
 11
95.77928980703
 21
-1298.25089875253
  0
LINE
  5
4AA
100
AcDbEntity
  8
0
  6
CONTINUOUS
 62
           2
100
AcDbLine
 10
81.279299807029
 20
-1327.80086875253
 11
80.27930980703
 21
-1327.80086875253
  0
LINE
  5
4A9
100
AcDbEntity
  8
0
  6
CONTINUOUS
 62
           2
100
AcDbLine
 10
81.279299807029
 20
-1331.30088875253
 11
81.279299807029
 21
-1327.80086875253
  0
LINE
  5
4A8
100
AcDbEntity
  8
0
  6
CONTINUOUS
 62
           2
100
AcDbLine
 10
80.27930980703
 20
-1327.80086875253
 11
80.27930980703
 21
-1331.00086875253
  0
LINE
  5
4A7
100
AcDbEntity
  8
0
  6
CONTINUOUS
 62
           2
100
AcDbLine
 10
80.27930980703
 20
-1331.00086875253
 11
78.27930980703
 21
-1331.00086875253
  0
LINE
  5
4A6
100
AcDbEntity
  8
0
  6
CONTINUOUS
 62
           2
100
AcDbLine
 10
80.279299807029
 20
-1311.80087875253
 11
78.27930980703
 21
-1311.80087875253
  0
LINE
  5
4A5
100
AcDbEntity
  8
0
  6
CONTINUOUS
 62
           2
100
AcDbLine
 10
89.279279807029
 20
-1298.25089875253
 11
87.779279807029
 21
-1298.25089875253
  0
LINE
  5
4A4
100
AcDbEntity
  8
0
  6
CONTINUOUS
 62
           2
100
AcDbLine
 10
89.279279807029
 20
-1299.25088875253
 11
89.279279807029
 21
-1298.25089875253
  0
LINE
  5
4A3
100
AcDbEntity
  8
0
  6
CONTINUOUS
 62
           2
100
AcDbLine
 10
88.681543806981
 20
-1299.25088875253
 11
89.279279807029
 21
-1299.25088875253
  0
LINE
  5
4A2
100
AcDbEntity
  8
0
  6
CONTINUOUS
 62
           2
100
AcDbLine
 10
88.579083807029
 20
-1299.25088875253
 11
88.681543806981
 21
-1299.25088875253
  0
LINE
  5
4A1
100
AcDbEntity
  8
0
  6
CONTINUOUS
 62
           2
100
AcDbLine
 10
87.27930980703
 20
-1299.25088875253
 11
88.579083807029
 21
-1299.25088875253
  0
LINE
  5
4A0
100
AcDbEntity
  8
0
  6
CONTINUOUS
 62
           2
100
AcDbLine
 10
87.779279807029
 20
-1294.70089875253
 11
97.27928980703
 21
-1294.70089875253
  0
LINE
  5
49F
100
AcDbEntity
  8
0
  6
CONTINUOUS
 62
           2
100
AcDbLine
 10
87.779279807029
 20
-1298.25089875253
 11
87.779279807029
 21
-1294.70089875253
  0
LINE
  5
49E
100
AcDbEntity
  8
0
  6
CONTINUOUS
 62
           2
100
AcDbLine
 10
86.27930980703
 20
-1294.70089875253
 11
86.27930980703
 21
-1298.250888752531
  0
LINE
  5
49D
100
AcDbEntity
  8
0
  6
CONTINUOUS
 62
           2
100
AcDbLine
 10
78.27930980703
 20
-1331.00086875253
 11
78.27930980703
 21
-1313.10089875253
  0
LINE
  5
49C
100
AcDbEntity
  8
0
  6
CONTINUOUS
 62
           2
100
AcDbLine
 10
78.27930980703
 20
-1313.10089875253
 11
80.27930980703
 21
-1313.10089875253
  0
LINE
  5
49B
100
AcDbEntity
  8
0
  6
CONTINUOUS
 62
           2
100
AcDbLine
 10
80.27930980703
 20
-1313.10089875253
 11
80.27930980703
 21
-1316.30089875253
  0
LINE
  5
49A
100
AcDbEntity
  8
0
  6
CONTINUOUS
 62
           2
100
AcDbLine
 10
81.279299807029
 20
-1316.30089875253
 11
81.279299807029
 21
-1312.80087875253
  0
LINE
  5
499
100
AcDbEntity
  8
0
  6
CONTINUOUS
 62
           2
100
AcDbLine
 10
80.27930980703
 20
-1316.30089875253
 11
81.279299807029
 21
-1316.30089875253
  0
ENDBLK
  5
4CD
100
AcDbEntity
  8
0
100
AcDbBlockEnd
  0
BLOCK
  5
94
100
AcDbEntity
  8
0
100
AcDbBlockBegin
  2
_G_E_P_B_L__
 70
           0
 10
0.0
 20
0.0
 30
0.0
  3
_G_E_P_B_L__
  1

  0
ARC
  5
4E2
100
AcDbEntity
  8
0
  6
CONTINUOUS
 62
           2
100
AcDbCircle
 10
41.979279807029
 20
-1334.10100805644
 40
0.5
100
AcDbArc
 50
89.999432783149
 51
180.0
  0
ARC
  5
4E1
100
AcDbEntity
  8
0
  6
CONTINUOUS
 62
           2
100
AcDbCircle
 10
50.579369800747
 20
-1334.101156683383
 40
0.5
100
AcDbArc
 50
-0.000916619026
 51
89.996295137222
  0
LINE
  5
4E0
100
AcDbEntity
  8
0
  6
CONTINUOUS
 62
           2
100
AcDbLine
 10
49.479289807029
 20
-1336.70081875253
 11
47.979289807029
 21
-1336.70079875253
  0
LINE
  5
4DF
100
AcDbEntity
  8
0
  6
CONTINUOUS
 62
           2
100
AcDbLine
 10
47.979289807029
 20
-1336.70079875253
 11
47.979289807029
 21
-1335.30100875253
  0
LINE
  5
4DE
100
AcDbEntity
  8
0
  6
CONTINUOUS
 62
           2
100
AcDbLine
 10
49.479289807029
 20
-1337.900813316978
 11
49.479289807029
 21
-1336.70081875253
  0
LINE
  5
4DD
100
AcDbEntity
  8
0
  6
CONTINUOUS
 62
           2
100
AcDbLine
 10
44.579379807029
 20
-1335.30085875253
 11
44.579379807029
 21
-1336.70079875253
  0
LINE
  5
4DC
100
AcDbEntity
  8
0
  6
CONTINUOUS
 62
           2
100
AcDbLine
 10
44.579379807029
 20
-1336.70079875253
 11
43.07938980703
 21
-1336.700828752531
  0
LINE
  5
4DB
100
AcDbEntity
  8
0
  6
CONTINUOUS
 62
           2
100
AcDbLine
 10
43.07938980703
 20
-1336.700828752531
 11
43.07938980703
 21
-1337.9008152404
  0
LINE
  5
4DA
100
AcDbEntity
  8
0
  6
CONTINUOUS
 62
           2
100
AcDbLine
 10
43.07938980703
 20
-1337.9008152404
 11
49.479289807029
 21
-1337.900813316978
  0
LINE
  5
4D9
100
AcDbEntity
  8
0
  6
CONTINUOUS
 62
           2
100
AcDbLine
 10
50.579402131774
 20
-1333.601020795652
 11
41.97928475693
 21
-1333.601008056464
  0
LINE
  5
4D8
100
AcDbEntity
  8
0
  6
CONTINUOUS
 62
           2
100
AcDbLine
 10
48.279079807029
 20
-1335.30100875253
 11
51.079329804629
 21
-1335.30100875253
  0
LINE
  5
4D7
100
AcDbEntity
  8
0
  6
CONTINUOUS
 62
           2
100
AcDbLine
 10
47.979289807029
 20
-1335.30100875253
 11
48.279079807029
 21
-1335.30100875253
  0
LINE
  5
4D6
100
AcDbEntity
  8
0
  6
CONTINUOUS
 62
           2
100
AcDbLine
 10
41.479279807029
 20
-1335.30085875253
 11
43.818496807277
 21
-1335.30085875253
  0
LINE
  5
4D5
100
AcDbEntity
  8
0
  6
CONTINUOUS
 62
           2
100
AcDbLine
 10
43.818496807277
 20
-1335.30085875253
 11
44.279059807029
 21
-1335.30085875253
  0
LINE
  5
4D4
100
AcDbEntity
  8
0
  6
CONTINUOUS
 62
           2
100
AcDbLine
 10
44.279059807029
 20
-1335.30085875253
 11
44.579379807029
 21
-1335.30085875253
  0
LINE
  5
4D3
100
AcDbEntity
  8
0
  6
CONTINUOUS
 62
           4
100
AcDbLine
 10
49.079329807029
 20
-1334.60083875253
 11
43.479279807029
 21
-1334.60083875253
  0
LINE
  5
4D2
100
AcDbEntity
  8
0
  6
CONTINUOUS
 62
           4
100
AcDbLine
 10
49.079359807029
 20
-1334.20052875253
 11
49.079329807029
 21
-1334.60083875253
  0
LINE
  5
4D1
100
AcDbEntity
  8
0
  6
CONTINUOUS
 62
           2
100
AcDbLine
 10
41.479279807029
 20
-1334.10100805644
 11
41.479279807029
 21
-1335.30085875253
  0
LINE
  5
4D0
100
AcDbEntity
  8
0
  6
CONTINUOUS
 62
           2
100
AcDbLine
 10
51.079329804629
 20
-1335.30100875253
 11
51.079369800683
 21
-1334.101164682393
  0
LINE
  5
4CF
100
AcDbEntity
  8
0
  6
CONTINUOUS
 62
           4
100
AcDbLine
 10
43.479279807029
 20
-1334.60083875253
 11
43.479279807029
 21
-1334.200546784392
  0
LINE
  5
4CE
100
AcDbEntity
  8
0
  6
CONTINUOUS
 62
           4
100
AcDbLine
 10
43.479279807029
 20
-1334.200546784392
 11
49.079359807029
 21
-1334.20052875253
  0
ENDBLK
  5
4E3
100
AcDbEntity
  8
0
100
AcDbBlockEnd
  0
BLOCK
  5
96
100
AcDbEntity
  8
0
100
AcDbBlockBegin
  2
___O__
 70
           0
 10
0.0
 20
0.0
 30
0.0
  3
___O__
  1

  0
LINE
  5
4E5
100
AcDbEntity
  8
0
  6
CENTER_DASH_DASH
 62
           2
100
AcDbLine
 10
35.779049807049
 20
-1333.601008752542
 11
53.279049807026
 21
-1333.601008752542
  0
LINE
  5
4E4
100
AcDbEntity
  8
0
  6
CENTER_DASH_DASH
 62
           2
100
AcDbLine
 10
35.779049807049
 20
-1333.001008752542
 11
53.279049807026
 21
-1333.001008752542
  0
ENDBLK
  5
4E6
100
AcDbEntity
  8
0
100
AcDbBlockEnd
  0
BLOCK
  5
98
100
AcDbEntity
  8
0
100
AcDbBlockBegin
  2
___O__ASSY
 70
           0
 10
0.0
 20
0.0
 30
0.0
  3
___O__ASSY
  1

  0
INSERT
  5
99
100
AcDbEntity
  8
0
100
AcDbBlockReference
  2
___O__
 10
0.0
 20
0.0
  0
ENDBLK
  5
4E7
100
AcDbEntity
  8
0
100
AcDbBlockEnd
  0
BLOCK
  5
9B
100
AcDbEntity
  8
0
100
AcDbBlockBegin
  2
_X___C____ASSY__29
 70
           0
 10
0.0
 20
0.0
 30
0.0
  3
_X___C____ASSY__29
  1

  0
INSERT
  5
9C
100
AcDbEntity
  8
0
100
AcDbBlockReference
  2
___O__ASSY
 10
0.0
 20
0.0
  0
ENDBLK
  5
4E8
100
AcDbEntity
  8
0
100
AcDbBlockEnd
  0
BLOCK
  5
9E
100
AcDbEntity
  8
0
100
AcDbBlockBegin
  2
____ASSY_S_J__30
 70
           0
 10
0.0
 20
0.0
 30
0.0
  3
____ASSY_S_J__30
  1

  0
INSERT
  5
9F
100
AcDbEntity
  8
0
100
AcDbBlockReference
  2
_X___C____ASSY__29
 10
0.0
 20
0.0
  0
ENDBLK
  5
4E9
100
AcDbEntity
  8
0
100
AcDbBlockEnd
  0
BLOCK
  5
A1
100
AcDbEntity
  8
0
100
AcDbBlockBegin
  2
A1__31
 70
           0
 10
0.0
 20
0.0
 30
0.0
  3
A1__31
  1

  0
INSERT
  5
A2
100
AcDbEntity
  8
0
100
AcDbBlockReference
  2
____ASSY_S_J__30
 10
0.0
 20
0.0
  0
ENDBLK
  5
4EA
100
AcDbEntity
  8
0
100
AcDbBlockEnd
  0
BLOCK
  5
A4
100
AcDbEntity
  8
0
100
AcDbBlockBegin
  2
____1__32
 70
           0
 10
0.0
 20
0.0
 30
0.0
  3
____1__32
  1

  0
INSERT
  5
A5
100
AcDbEntity
  8
0
100
AcDbBlockReference
  2
A1__31
 10
0.0
 20
0.0
  0
ENDBLK
  5
4EB
100
AcDbEntity
  8
0
100
AcDbBlockEnd
  0
BLOCK
  5
A7
100
AcDbEntity
  8
0
100
AcDbBlockBegin
  2
______
 70
           0
 10
0.0
 20
0.0
 30
0.0
  3
______
  1

  0
ARC
  5
571
100
AcDbEntity
  8
1
  6
CENTER_DASH_DASH
 62
           2
100
AcDbCircle
 10
53.779049807027
 20
-1346.101008752529
 40
0.5
100
AcDbArc
 50
180.0
 51
-90.0
  0
ARC
  5
570
100
AcDbEntity
  8
1
  6
CENTER_DASH_DASH
 62
           2
100
AcDbCircle
 10
53.779049807027
 20
-1345.101008752527
 40
0.5
100
AcDbArc
 50
180.0
 51
-90.0
  0
ARC
  5
56F
100
AcDbEntity
  8
1
  6
CENTER_DASH_DASH
 62
           2
100
AcDbCircle
 10
68.779049807025
 20
-1333.101008752523
 40
0.5
100
AcDbArc
 50
0.0
 51
90.0
  0
ARC
  5
56E
100
AcDbEntity
  8
1
  6
CENTER_DASH_DASH
 62
           2
100
AcDbCircle
 10
67.779049807025
 20
-1333.101008752523
 40
0.5
100
AcDbArc
 50
0.0
 51
90.0
  0
ARC
  5
56D
100
AcDbEntity
  8
1
  6
CENTER_DASH_DASH
 62
           2
100
AcDbCircle
 10
99.583083123593
 20
-1375.108278598537
 40
0.299999999999
100
AcDbArc
 50
-64.816294211548
 51
25.183705788456
  0
ARC
  5
56C
100
AcDbEntity
  8
1
  6
CENTER_DASH_DASH
 62
           2
100
AcDbCircle
 10
100.850010466733
 20
-1374.512547864729
 40
0.3
100
AcDbArc
 50
-154.816294211386
 51
-64.816294211636
  0
ARC
  5
56B
100
AcDbEntity
  8
1
  6
CENTER_DASH_DASH
 62
           2
100
AcDbCircle
 10
100.610868554143
 20
-1373.298953556222
 40
1.499999999999
100
AcDbArc
 50
-64.816294211569
 51
25.183705788433
  0
ARC
  5
56A
100
AcDbEntity
  8
1
  6
CENTER_DASH_DASH
 62
           2
100
AcDbCircle
 10
98.800972349657
 20
-1374.149997461661
 40
1.5
100
AcDbArc
 50
-154.816294211574
 51
-64.816294211582
  0
ARC
  5
569
100
AcDbEntity
  8
1
  6
CENTER_DASH_DASH
 62
           2
100
AcDbCircle
 10
99.295688896562
 20
-1374.967094671448
 40
0.499999999999
100
AcDbArc
 50
25.183705788198
 51
68.735523448921
  0
ARC
  5
568
100
AcDbEntity
  8
1
  6
CENTER_DASH_DASH
 62
           2
100
AcDbCircle
 10
100.9245954806
 20
-1374.201155156553
 40
0.499999999999
100
AcDbArc
 50
161.631888127964
 51
-154.816294211453
  0
ARC
  5
567
100
AcDbEntity
  8
1
  6
CENTER_DASH_DASH
 62
           2
100
AcDbCircle
 10
100.427255933462
 20
-1371.145927403806
 40
0.5
100
AcDbArc
 50
170.521441902001
 51
-154.816294211542
  0
ARC
  5
566
100
AcDbEntity
  8
1
  6
CENTER_DASH_DASH
 62
           2
100
AcDbCircle
 10
97.259937575611
 20
-1372.635254238325
 40
0.5
100
AcDbArc
 50
25.183705788433
 51
59.845969674872
  0
ARC
  5
565
100
AcDbEntity
  8
1
  6
CENTER_DASH_DASH
 62
           2
100
AcDbCircle
 10
95.376582014427
 20
-1366.162405955558
 40
0.3
100
AcDbArc
 50
25.183705788417
 51
115.183705788451
  0
ARC
  5
564
100
AcDbEntity
  8
1
  6
CENTER_DASH_DASH
 62
           2
100
AcDbCircle
 10
96.643509357567
 20
-1365.56667522175
 40
0.3
100
AcDbArc
 50
115.183705788359
 51
-154.816294211583
  0
ARC
  5
563
100
AcDbEntity
  8
1
  6
CENTER_DASH_DASH
 62
           2
100
AcDbCircle
 10
97.425620131504
 20
-1366.524956358625
 40
1.5
100
AcDbArc
 50
25.183705788409
 51
115.183705788432
  0
ARC
  5
562
100
AcDbEntity
  8
1
  6
CENTER_DASH_DASH
 62
           2
100
AcDbCircle
 10
95.615723927018
 20
-1367.376000264065
 40
1.5
100
AcDbArc
 50
115.183705788417
 51
-154.816294211559
  0
ARC
  5
561
100
AcDbEntity
  8
1
  6
CENTER_DASH_DASH
 62
           2
100
AcDbCircle
 10
95.30199700056
 20
-1366.473798663733
 40
0.499999999999
100
AcDbArc
 50
-18.368111872111
 51
25.183705788338
  0
ARC
  5
560
100
AcDbEntity
  8
1
  6
CENTER_DASH_DASH
 62
           2
100
AcDbCircle
 10
96.930903584598
 20
-1365.707859148839
 40
0.499999999999
100
AcDbArc
 50
-154.816294211756
 51
-111.264476550983
  0
ARC
  5
55F
100
AcDbEntity
  8
1
  6
CENTER_DASH_DASH
 62
           2
100
AcDbCircle
 10
98.966654905549
 20
-1368.039699581962
 40
0.5
100
AcDbArc
 50
-154.816294211661
 51
-120.154030325173
  0
ARC
  5
55E
100
AcDbEntity
  8
1
  6
CENTER_DASH_DASH
 62
           2
100
AcDbCircle
 10
95.799336547699
 20
-1369.529026416481
 40
0.5
100
AcDbArc
 50
-9.478558098006
 51
25.183705788433
  0
CIRCLE
  5
55D
100
AcDbEntity
  8
1
  6
CENTER_DASH_DASH
 62
           2
100
AcDbCircle
 10
76.915450840063
 20
-1349.054582596101
 40
1.150000000001
  0
CIRCLE
  5
55C
100
AcDbEntity
  8
1
  6
CENTER_DASH_DASH
 62
           2
100
AcDbCircle
 10
80.325912686997
 20
-1350.816081667733
 40
1.15
  0
CIRCLE
  5
55B
100
AcDbEntity
  8
1
  6
CENTER_DASH_DASH
 62
           2
100
AcDbCircle
 10
83.56987193702
 20
-1352.86811903897
 40
1.150000000001
  0
CIRCLE
  5
55A
100
AcDbEntity
  8
1
  6
CENTER_DASH_DASH
 62
           2
100
AcDbCircle
 10
86.622640101482
 20
-1355.195077466362
 40
1.15
  0
CIRCLE
  5
559
100
AcDbEntity
  8
1
  6
CENTER_DASH_DASH
 62
           2
100
AcDbCircle
 10
89.460983771341
 20
-1357.779247391218
 40
1.150000000001
  0
CIRCLE
  5
558
100
AcDbEntity
  8
1
  6
CENTER_DASH_DASH
 62
           2
100
AcDbCircle
 10
92.063301437428
 20
-1360.600961720049
 40
1.15
  0
CIRCLE
  5
557
100
AcDbEntity
  8
1
  6
CENTER_DASH_DASH
 62
           2
100
AcDbCircle
 10
94.409787890985
 20
-1363.638745503011
 40
1.15
  0
CIRCLE
  5
556
100
AcDbEntity
  8
1
  6
CENTER_DASH_DASH
 62
           2
100
AcDbCircle
 10
100.912205715927
 20
-1377.467293320728
 40
1.150000000001
  0
CIRCLE
  5
555
100
AcDbEntity
  8
1
  6
CENTER_DASH_DASH
 62
           2
100
AcDbCircle
 10
101.755021759062
 20
-1381.212128444762
 40
1.150000000001
  0
CIRCLE
  5
554
100
AcDbEntity
  8
1
  6
CENTER_DASH_DASH
 62
           2
100
AcDbCircle
 10
102.268246745996
 20
-1385.016169598791
 40
1.15
  0
CIRCLE
  5
553
100
AcDbEntity
  8
1
  6
CENTER_DASH_DASH
 62
           2
100
AcDbCircle
 10
102.447974724686
 20
-1388.850465732691
 40
1.15
  0
CIRCLE
  5
552
100
AcDbEntity
  8
1
  6
CENTER_DASH_DASH
 62
           2
100
AcDbCircle
 10
71.943203628726
 20
-1356.035845458735
 40
1.15
  0
CIRCLE
  5
551
100
AcDbEntity
  8
1
  6
CENTER_DASH_DASH
 62
           2
100
AcDbCircle
 10
72.35348824679
 20
-1359.852361608436
 40
1.150000000001
  0
CIRCLE
  5
550
100
AcDbEntity
  8
1
  6
CENTER_DASH_DASH
 62
           2
100
AcDbCircle
 10
73.094842907751
 20
-1363.618596101325
 40
1.15
  0
CIRCLE
  5
54F
100
AcDbEntity
  8
1
  6
CENTER_DASH_DASH
 62
           2
100
AcDbCircle
 10
74.161625454995
 20
-1367.305885618798
 40
1.15
  0
CIRCLE
  5
54E
100
AcDbEntity
  8
1
  6
CENTER_DASH_DASH
 62
           2
100
AcDbCircle
 10
75.545717029198
 20
-1370.886167661177
 40
1.15
  0
CIRCLE
  5
54D
100
AcDbEntity
  8
1
  6
CENTER_DASH_DASH
 62
           2
100
AcDbCircle
 10
77.23658385774
 20
-1374.332194120289
 40
1.15
  0
CIRCLE
  5
54C
100
AcDbEntity
  8
1
  6
CENTER_DASH_DASH
 62
           2
100
AcDbCircle
 10
79.221357423086
 20
-1377.61773865401
 40
1.15
  0
CIRCLE
  5
54B
100
AcDbEntity
  8
1
  6
CENTER_DASH_DASH
 62
           2
100
AcDbCircle
 10
81.484932399964
 20
-1380.717796284574
 40
1.149999999999
  0
CIRCLE
  5
54A
100
AcDbEntity
  8
1
  6
CENTER_DASH_DASH
 62
           2
100
AcDbCircle
 10
84.010081616014
 20
-1383.608773701546
 40
1.150000000001
  0
CIRCLE
  5
549
100
AcDbEntity
  8
1
  6
CENTER_DASH_DASH
 62
           2
100
AcDbCircle
 10
86.777587160976
 20
-1386.268668821159
 40
1.149999999999
  0
CIRCLE
  5
548
100
AcDbEntity
  8
1
  6
CENTER_DASH_DASH
 62
           2
100
AcDbCircle
 10
89.766386646589
 20
-1388.677238235474
 40
1.149999999999
  0
CIRCLE
  5
547
100
AcDbEntity
  8
1
  6
CENTER_DASH_DASH
 62
           2
100
AcDbCircle
 10
92.953733504081
 20
-1390.816151276908
 40
1.15
  0
CIRCLE
  5
546
100
AcDbEntity
  8
1
  6
CENTER_DASH_DASH
 62
           2
100
AcDbCircle
 10
96.31537009929
 20
-1392.669129525701
 40
1.149999999999
  0
ARC
  5
545
100
AcDbEntity
  8
0
  6
CENTER_DASH_DASH
 62
           2
100
AcDbCircle
 10
64.279049807026
 20
-1341.601008752526
 40
4.000000000001
100
AcDbArc
 50
-89.999999999987
 51
-52.84164915122
  0
ARC
  5
544
100
AcDbEntity
  8
0
  6
CONTINUOUS
 62
           7
100
AcDbCircle
 10
64.279049807026
 20
-1341.601008752526
 40
4.0
100
AcDbArc
 50
-52.84164915122
 51
-41.409622109265
  0
ARC
  5
543
100
AcDbEntity
  8
0
  6
CENTER_DASH_DASH
 62
           2
100
AcDbCircle
 10
64.279049807026
 20
-1341.601008752526
 40
4.000000000001
100
AcDbArc
 50
-41.409622109265
 51
0.0
  0
ARC
  5
542
100
AcDbEntity
  8
0
  6
CENTER_DASH_DASH
 62
           2
100
AcDbCircle
 10
64.279049807025
 20
-1341.601008752528
 40
5.0
100
AcDbArc
 50
-89.999999999984
 51
0.0
  0
ARC
  5
541
100
AcDbEntity
  8
1
  6
CENTER_DASH_DASH
 62
           2
100
AcDbCircle
 10
71.867111567238
 20
-1352.198093644593
 40
1.150000000001
100
AcDbArc
 50
71.135868868485
 51
-175.158252755971
  0
ARC
  5
540
100
AcDbEntity
  8
1
  6
CENTER_DASH_DASH
 62
           2
100
AcDbCircle
 10
71.867111567238
 20
-1352.198093644593
 40
1.15
100
AcDbArc
 50
50.065217335324
 51
71.135868868485
  0
ARC
  5
53F
100
AcDbEntity
  8
1
  6
CENTER_DASH_DASH
 62
           2
100
AcDbCircle
 10
71.867111567238
 20
-1352.198093644593
 40
1.15
100
AcDbArc
 50
-134.164261954128
 51
9.071226533435
  0
ARC
  5
53E
100
AcDbEntity
  8
1
  6
CENTER_DASH_DASH
 62
           2
100
AcDbCircle
 10
68.613395894049
 20
-1345.935354839528
 40
6.699999999999
100
AcDbArc
 50
177.139615015035
 51
-90.0
  0
ARC
  5
53D
100
AcDbEntity
  8
1
  6
CENTER_DASH_DASH
 62
           2
100
AcDbCircle
 10
68.613395894049
 20
-1345.935354839528
 40
7.499999999999
100
AcDbArc
 50
177.444937273287
 51
-90.0
  0
ARC
  5
53C
100
AcDbEntity
  8
1
  6
CENTER_DASH_DASH
 62
           2
100
AcDbCircle
 10
68.613395894049
 20
-1345.935354839528
 40
7.5
100
AcDbArc
 50
-90.0
 51
92.55506272671
  0
ARC
  5
53B
100
AcDbEntity
  8
1
  6
CENTER_DASH_DASH
 62
           2
100
AcDbCircle
 10
68.613395894049
 20
-1345.935354839528
 40
6.699999999999
100
AcDbArc
 50
-90.0
 51
92.860384984966
  0
ARC
  5
53A
100
AcDbEntity
  8
1
  6
CENTER_DASH_DASH
 62
           2
100
AcDbCircle
 10
73.108196844077
 20
-1348.565761566661
 40
1.15
100
AcDbArc
 50
-108.86413113155
 51
-7.31629421157
  0
ARC
  5
539
100
AcDbEntity
  8
1
  6
CENTER_DASH_DASH
 62
           2
100
AcDbCircle
 10
73.108196844077
 20
-1348.565761566661
 40
1.150000000001
100
AcDbArc
 50
-7.31629421157
 51
-108.86413113155
  0
ARC
  5
538
100
AcDbEntity
  8
1
  6
CENTER_DASH_DASH
 62
           2
100
AcDbCircle
 10
100.068092553568
 20
-1391.862157921537
 40
1.15
100
AcDbArc
 50
-167.864131131481
 51
51.683705788359
  0
ARC
  5
537
100
AcDbEntity
  8
1
  6
CENTER_DASH_DASH
 62
           2
100
AcDbCircle
 10
100.068092553568
 20
-1391.862157921537
 40
1.149999999999
100
AcDbArc
 50
51.683705788359
 51
-167.864131131481
  0
ARC
  5
536
100
AcDbEntity
  8
1
  6
CENTER_DASH_DASH
 62
           2
100
AcDbCircle
 10
58.448200888294
 20
-1388.991541408946
 40
44.000000000001
100
AcDbArc
 50
61.681251743162
 51
63.686159833682
  0
ARC
  5
535
100
AcDbEntity
  8
1
  6
CENTER_DASH_DASH
 62
           2
100
AcDbCircle
 10
58.448200888294
 20
-1388.991541408946
 40
44.000000000001
100
AcDbArc
 50
56.681251743162
 51
58.686159833682
  0
ARC
  5
534
100
AcDbEntity
  8
1
  6
CENTER_DASH_DASH
 62
           2
100
AcDbCircle
 10
58.448200888294
 20
-1388.991541408946
 40
44.0
100
AcDbArc
 50
51.681251743161
 51
53.68615983368
  0
ARC
  5
533
100
AcDbEntity
  8
1
  6
CENTER_DASH_DASH
 62
           2
100
AcDbCircle
 10
58.448200888294
 20
-1388.991541408946
 40
44.0
100
AcDbArc
 50
46.681251743162
 51
48.686159833681
  0
ARC
  5
532
100
AcDbEntity
  8
1
  6
CENTER_DASH_DASH
 62
           2
100
AcDbCircle
 10
58.448200888294
 20
-1388.991541408946
 40
44.0
100
AcDbArc
 50
41.681251743162
 51
43.686159833681
  0
ARC
  5
531
100
AcDbEntity
  8
1
  6
CENTER_DASH_DASH
 62
           2
100
AcDbCircle
 10
58.448200888294
 20
-1388.991541408946
 40
44.000000000001
100
AcDbArc
 50
36.681251743163
 51
38.686159833681
  0
ARC
  5
530
100
AcDbEntity
  8
1
  6
CENTER_DASH_DASH
 62
           2
100
AcDbCircle
 10
58.448200888294
 20
-1388.991541408946
 40
44.000000000001
100
AcDbArc
 50
31.681251743162
 51
33.686159833682
  0
ARC
  5
52F
100
AcDbEntity
  8
1
  6
CENTER_DASH_DASH
 62
           2
100
AcDbCircle
 10
58.448200888294
 20
-1388.991541408946
 40
44.0
100
AcDbArc
 50
16.681251743163
 51
18.686159833682
  0
ARC
  5
52E
100
AcDbEntity
  8
1
  6
CENTER_DASH_DASH
 62
           2
100
AcDbCircle
 10
58.448200888294
 20
-1388.991541408946
 40
44.000000000001
100
AcDbArc
 50
11.681251743162
 51
13.686159833682
  0
ARC
  5
52D
100
AcDbEntity
  8
1
  6
CENTER_DASH_DASH
 62
           2
100
AcDbCircle
 10
58.448200888294
 20
-1388.991541408946
 40
44.000000000001
100
AcDbArc
 50
6.681251743163
 51
8.686159833681
  0
ARC
  5
52C
100
AcDbEntity
  8
1
  6
CENTER_DASH_DASH
 62
           2
100
AcDbCircle
 10
58.448200888294
 20
-1388.991541408946
 40
44.0
100
AcDbArc
 50
1.681251743161
 51
3.686159833682
  0
ARC
  5
52B
100
AcDbEntity
  8
1
  6
CENTER_DASH_DASH
 62
           2
100
AcDbCircle
 10
115.854641490054
 20
-1353.245572183446
 40
43.999999999993
100
AcDbArc
 50
-179.866585176789
 51
-177.861677086271
  0
ARC
  5
52A
100
AcDbEntity
  8
1
  6
CENTER_DASH_DASH
 62
           2
100
AcDbCircle
 10
115.854641490054
 20
-1353.245572183446
 40
43.999999999999
100
AcDbArc
 50
-174.866585176791
 51
-172.861677086272
  0
ARC
  5
529
100
AcDbEntity
  8
1
  6
CENTER_DASH_DASH
 62
           2
100
AcDbCircle
 10
115.854641490054
 20
-1353.245572183446
 40
44.0
100
AcDbArc
 50
-169.866585176792
 51
-167.861677086274
  0
ARC
  5
528
100
AcDbEntity
  8
1
  6
CENTER_DASH_DASH
 62
           2
100
AcDbCircle
 10
115.854641490054
 20
-1353.245572183446
 40
44.0
100
AcDbArc
 50
-164.866585176792
 51
-162.861677086273
  0
ARC
  5
527
100
AcDbEntity
  8
1
  6
CENTER_DASH_DASH
 62
           2
100
AcDbCircle
 10
115.854641490054
 20
-1353.245572183446
 40
44.0
100
AcDbArc
 50
-159.866585176793
 51
-157.861677086273
  0
ARC
  5
526
100
AcDbEntity
  8
1
  6
CENTER_DASH_DASH
 62
           2
100
AcDbCircle
 10
115.854641490054
 20
-1353.245572183446
 40
44.000000000001
100
AcDbArc
 50
-154.866585176792
 51
-152.861677086272
  0
ARC
  5
525
100
AcDbEntity
  8
1
  6
CENTER_DASH_DASH
 62
           2
100
AcDbCircle
 10
115.854641490054
 20
-1353.245572183446
 40
44.0
100
AcDbArc
 50
-149.866585176792
 51
-147.861677086274
  0
ARC
  5
524
100
AcDbEntity
  8
1
  6
CENTER_DASH_DASH
 62
           2
100
AcDbCircle
 10
115.854641490054
 20
-1353.245572183446
 40
44.0
100
AcDbArc
 50
-144.866585176791
 51
-142.861677086272
  0
ARC
  5
523
100
AcDbEntity
  8
1
  6
CENTER_DASH_DASH
 62
           2
100
AcDbCircle
 10
115.854641490054
 20
-1353.245572183446
 40
44.0
100
AcDbArc
 50
-139.866585176792
 51
-137.861677086271
  0
ARC
  5
522
100
AcDbEntity
  8
1
  6
CENTER_DASH_DASH
 62
           2
100
AcDbCircle
 10
115.854641490054
 20
-1353.245572183446
 40
44.0
100
AcDbArc
 50
-134.866585176794
 51
-132.861677086272
  0
ARC
  5
521
100
AcDbEntity
  8
1
  6
CENTER_DASH_DASH
 62
           2
100
AcDbCircle
 10
115.854641490054
 20
-1353.245572183446
 40
44.0
100
AcDbArc
 50
-129.866585176793
 51
-127.861677086273
  0
ARC
  5
520
100
AcDbEntity
  8
1
  6
CENTER_DASH_DASH
 62
           2
100
AcDbCircle
 10
115.854641490054
 20
-1353.245572183446
 40
44.000000000001
100
AcDbArc
 50
-124.866585176793
 51
-122.861677086273
  0
ARC
  5
51F
100
AcDbEntity
  8
1
  6
CENTER_DASH_DASH
 62
           2
100
AcDbCircle
 10
115.854641490054
 20
-1353.245572183446
 40
44.000000000001
100
AcDbArc
 50
-119.866585176791
 51
-117.861677086274
  0
ARC
  5
51E
100
AcDbEntity
  8
1
  6
CENTER_DASH_DASH
 62
           2
100
AcDbCircle
 10
100.988176732791
 20
-1371.459890231947
 40
3.395991267587
100
AcDbArc
 50
-161.33938534545
 51
-116.422113558343
  0
ARC
  5
51D
100
AcDbEntity
  8
1
  6
CENTER_DASH_DASH
 62
           2
100
AcDbCircle
 10
98.013427112547
 20
-1371.338237076634
 40
0.999999999998
100
AcDbArc
 50
-144.482115518215
 51
-120.154030325235
  0
ARC
  5
51C
100
AcDbEntity
  8
1
  6
CENTER_DASH_DASH
 62
           2
100
AcDbCircle
 10
98.947734985665
 20
-1370.898909661476
 40
0.999999999998
100
AcDbArc
 50
-9.478558097899
 51
14.849527094997
  0
ARC
  5
51B
100
AcDbEntity
  8
1
  6
CENTER_DASH_DASH
 62
           2
100
AcDbCircle
 10
97.143946086858
 20
-1373.267512710084
 40
3.395991267587
100
AcDbArc
 50
-13.210474864823
 51
31.706796922283
  0
ARC
  5
51A
100
AcDbEntity
  8
1
  6
CENTER_DASH_DASH
 62
           2
100
AcDbCircle
 10
99.082646394302
 20
-1367.407441110203
 40
3.395991267587
100
AcDbArc
 50
166.789525135172
 51
-148.293203077699
  0
ARC
  5
519
100
AcDbEntity
  8
1
  6
CENTER_DASH_DASH
 62
           2
100
AcDbCircle
 10
97.278857495495
 20
-1369.776044158813
 40
0.999999999999
100
AcDbArc
 50
170.521441901985
 51
-165.150472905053
  0
ARC
  5
518
100
AcDbEntity
  8
1
  6
CENTER_DASH_DASH
 62
           2
100
AcDbCircle
 10
98.213165368613
 20
-1369.336716743655
 40
1.0
100
AcDbArc
 50
35.51788448199
 51
59.845969674846
  0
ARC
  5
517
100
AcDbEntity
  8
1
  6
CENTER_DASH_DASH
 62
           2
100
AcDbCircle
 10
95.238415748369
 20
-1369.21506358834
 40
3.395991267587
100
AcDbArc
 50
18.660614654529
 51
63.577886441642
  0
ARC
  5
516
100
AcDbEntity
  8
1
  6
CENTER_DASH_DASH
 62
           2
100
AcDbCircle
 10
96.482584953252
 20
-1366.869479371256
 40
1.15
100
AcDbArc
 50
-85.170700609813
 51
3.22476438029
  0
ARC
  5
515
100
AcDbEntity
  8
1
  6
CENTER_DASH_DASH
 62
           2
100
AcDbCircle
 10
96.482584953252
 20
-1366.869479371256
 40
1.150000000001
100
AcDbArc
 50
-132.857352803521
 51
-85.170700609813
  0
ARC
  5
514
100
AcDbEntity
  8
1
  6
CENTER_DASH_DASH
 62
           2
100
AcDbCircle
 10
96.482584953252
 20
-1366.869479371256
 40
1.149999999998
100
AcDbArc
 50
94.829299390195
 51
135.538112186725
  0
ARC
  5
513
100
AcDbEntity
  8
1
  6
CENTER_DASH_DASH
 62
           2
100
AcDbCircle
 10
99.746212955588
 20
-1373.810164683177
 40
1.150000000001
100
AcDbArc
 50
135.538112186652
 51
-176.907366117374
  0
ARC
  5
512
100
AcDbEntity
  8
1
  6
CENTER_DASH_DASH
 62
           2
100
AcDbCircle
 10
99.746212955588
 20
-1373.810164683177
 40
1.15
100
AcDbArc
 50
47.2747776943
 51
135.538112186652
  0
ARC
  5
511
100
AcDbEntity
  8
1
  6
CENTER_DASH_DASH
 62
           2
100
AcDbCircle
 10
99.746212955588
 20
-1373.810164683177
 40
1.15
100
AcDbArc
 50
-85.170700609836
 51
-44.461887813404
  0
LINE
  5
510
100
AcDbEntity
  8
0
  6
CONTINUOUS
 62
           7
100
AcDbLine
 10
53.279049807026
 20
-1332.601008752527
 11
53.279049807026
 21
-1333.001008752542
  0
LINE
  5
50F
100
AcDbEntity
  8
0
  6
CENTER_DASH_DASH
 62
           2
100
AcDbLine
 10
53.279049807026
 20
-1333.001008752542
 11
53.279049807027
 21
-1346.101008752529
  0
LINE
  5
50E
100
AcDbEntity
  8
0
  6
CENTER_DASH_DASH
 62
           2
100
AcDbLine
 10
53.279049807026
 20
-1332.601008752527
 11
68.779049807025
 21
-1332.601008752523
  0
LINE
  5
50D
100
AcDbEntity
  8
0
  6
CENTER_DASH_DASH
 62
           2
100
AcDbLine
 10
64.279049807027
 20
-1346.601008752528
 11
53.779049807027
 21
-1346.601008752529
  0
LINE
  5
50C
100
AcDbEntity
  8
0
  6
CENTER_DASH_DASH
 62
           2
100
AcDbLine
 10
64.279049807027
 20
-1345.601008752527
 11
53.779049807027
 21
-1345.601008752527
  0
LINE
  5
50B
100
AcDbEntity
  8
0
  6
CENTER_DASH_DASH
 62
           2
100
AcDbLine
 10
68.279049807025
 20
-1333.101008752523
 11
68.279049807026
 21
-1341.601008752526
  0
LINE
  5
50A
100
AcDbEntity
  8
0
  6
CENTER_DASH_DASH
 62
           2
100
AcDbLine
 10
69.279049807025
 20
-1333.101008752523
 11
69.279049807026
 21
-1341.601008752528
  0
LINE
  5
509
100
AcDbEntity
  8
1
  6
CENTER_DASH_DASH
 62
           2
100
AcDbLine
 10
75.774813833155
 20
-1348.908133907223
 11
75.513465606478
 21
-1348.874578880598
  0
LINE
  5
508
100
AcDbEntity
  8
1
  6
CENTER_DASH_DASH
 62
           2
100
AcDbLine
 10
75.513465606478
 20
-1348.874578880598
 11
74.685042914635
 21
-1348.76821601816
  0
LINE
  5
507
100
AcDbEntity
  8
1
  6
CENTER_DASH_DASH
 62
           2
100
AcDbLine
 10
74.685042914635
 20
-1348.76821601816
 11
74.248833850985
 21
-1348.712210255538
  0
LINE
  5
506
100
AcDbEntity
  8
1
  6
CENTER_DASH_DASH
 62
           2
100
AcDbLine
 10
72.73637300543
 20
-1349.653992715367
 11
72.238935405885
 21
-1351.109862495886
  0
LINE
  5
505
100
AcDbEntity
  8
1
  6
CENTER_DASH_DASH
 62
           2
100
AcDbLine
 10
101.73497220914
 20
-1389.75275582619
 11
100.781095069113
 21
-1390.959867828039
  0
LINE
  5
504
100
AcDbEntity
  8
1
  6
CENTER_DASH_DASH
 62
           2
100
AcDbLine
 10
98.943792963229
 20
-1392.103923161315
 11
97.424355884567
 21
-1392.430657310119
  0
LINE
  5
503
100
AcDbEntity
  8
1
  6
CENTER_DASH_DASH
 62
           2
100
AcDbLine
 10
100.977667052549
 20
-1374.784032295403
 11
99.710739709409
 21
-1375.379763029209
  0
LINE
  5
502
100
AcDbEntity
  8
1
  6
CENTER_DASH_DASH
 62
           2
100
AcDbLine
 10
101.249151483222
 20
-1374.656375709586
 11
100.977667052549
 21
-1374.784032295403
  0
LINE
  5
501
100
AcDbEntity
  8
1
  6
CENTER_DASH_DASH
 62
           2
100
AcDbLine
 10
100.57852603606
 20
-1374.640204450546
 11
100.566986958592
 21
-1374.615664550337
  0
LINE
  5
500
100
AcDbEntity
  8
1
  6
CENTER_DASH_DASH
 62
           2
100
AcDbLine
 10
100.375666496188
 20
-1369.273672028344
 11
101.968290707507
 21
-1372.660670627142
  0
LINE
  5
4FF
100
AcDbEntity
  8
1
  6
CENTER_DASH_DASH
 62
           2
100
AcDbLine
 10
99.710739709409
 20
-1375.379763029209
 11
99.439255278736
 21
-1375.507419615026
  0
LINE
  5
4FE
100
AcDbEntity
  8
1
  6
CENTER_DASH_DASH
 62
           2
100
AcDbLine
 10
99.748162947684
 20
-1374.75433369509
 11
99.854567554266
 21
-1374.980622012721
  0
LINE
  5
4FD
100
AcDbEntity
  8
1
  6
CENTER_DASH_DASH
 62
           2
100
AcDbLine
 10
100.566986958592
 20
-1374.615664550337
 11
100.472121429479
 21
-1374.413916132914
  0
LINE
  5
4FC
100
AcDbEntity
  8
1
  6
CENTER_DASH_DASH
 62
           2
100
AcDbLine
 10
97.770711216363
 20
-1372.546477706623
 11
97.712411626733
 21
-1372.422493261965
  0
LINE
  5
4FB
100
AcDbEntity
  8
1
  6
CENTER_DASH_DASH
 62
           2
100
AcDbLine
 10
96.755874087216
 20
-1370.975759839223
 11
97.199492896267
 21
-1371.919194124585
  0
LINE
  5
4FA
100
AcDbEntity
  8
1
  6
CENTER_DASH_DASH
 62
           2
100
AcDbLine
 10
99.914337202996
 20
-1370.642628266427
 11
99.470718393945
 21
-1369.699193981064
  0
LINE
  5
4F9
100
AcDbEntity
  8
1
  6
CENTER_DASH_DASH
 62
           2
100
AcDbLine
 10
99.97478188234
 20
-1371.358688380166
 11
100.033081471971
 21
-1371.482672824824
  0
LINE
  5
4F8
100
AcDbEntity
  8
1
  6
CENTER_DASH_DASH
 62
           2
100
AcDbLine
 10
97.443550196292
 20
-1374.788280390741
 11
95.850925984973
 21
-1371.401281791944
  0
LINE
  5
4F7
100
AcDbEntity
  8
1
  6
CENTER_DASH_DASH
 62
           2
100
AcDbLine
 10
95.248925428611
 20
-1365.890921524886
 11
96.515852771751
 21
-1365.295190791077
  0
LINE
  5
4F6
100
AcDbEntity
  8
1
  6
CENTER_DASH_DASH
 62
           2
100
AcDbLine
 10
96.515852771751
 20
-1365.295190791077
 11
96.787337202425
 21
-1365.167534205261
  0
LINE
  5
4F5
100
AcDbEntity
  8
1
  6
CENTER_DASH_DASH
 62
           2
100
AcDbLine
 10
96.383564004363
 20
-1365.718871707777
 11
96.372024926894
 21
-1365.694331807566
  0
LINE
  5
4F4
100
AcDbEntity
  8
1
  6
CENTER_DASH_DASH
 62
           2
100
AcDbLine
 10
98.783042284869
 20
-1365.886673429546
 11
100.375666496188
 21
-1369.273672028344
  0
LINE
  5
4F3
100
AcDbEntity
  8
1
  6
CENTER_DASH_DASH
 62
           2
100
AcDbLine
 10
94.977440997938
 20
-1366.0185781107
 11
95.248925428611
 21
-1365.890921524886
  0
LINE
  5
4F2
100
AcDbEntity
  8
1
  6
CENTER_DASH_DASH
 62
           2
100
AcDbLine
 10
95.6480664451
 20
-1366.034749369742
 11
95.754471051682
 21
-1366.261037687374
  0
LINE
  5
4F1
100
AcDbEntity
  8
1
  6
CENTER_DASH_DASH
 62
           2
100
AcDbLine
 10
96.478429533476
 20
-1365.920620125197
 11
96.383564004363
 21
-1365.718871707777
  0
LINE
  5
4F0
100
AcDbEntity
  8
1
  6
CENTER_DASH_DASH
 62
           2
100
AcDbLine
 10
96.25181059882
 20
-1369.316265440121
 11
96.19351100919
 21
-1369.192280995464
  0
LINE
  5
4EF
100
AcDbEntity
  8
1
  6
CENTER_DASH_DASH
 62
           2
100
AcDbLine
 10
96.312255278164
 20
-1370.032325553861
 11
96.755874087216
 21
-1370.975759839223
  0
LINE
  5
4EE
100
AcDbEntity
  8
1
  6
CENTER_DASH_DASH
 62
           2
100
AcDbLine
 10
99.470718393945
 20
-1369.699193981064
 11
99.027099584893
 21
-1368.7557596957
  0
LINE
  5
4ED
100
AcDbEntity
  8
1
  6
CENTER_DASH_DASH
 62
           2
100
AcDbLine
 10
98.455881264797
 20
-1368.128476113665
 11
98.514180854428
 21
-1368.252460558321
  0
LINE
  5
4EC
100
AcDbEntity
  8
1
  6
CENTER_DASH_DASH
 62
           2
100
AcDbLine
 10
95.850925984973
 20
-1371.401281791944
 11
94.258301773653
 21
-1368.014283193145
  0
ENDBLK
  5
572
100
AcDbEntity
  8
0
100
AcDbBlockEnd
  0
BLOCK
  5
A9
100
AcDbEntity
  8
0
100
AcDbBlockBegin
  2
SKB_A3__S
 70
           0
 10
0.0
 20
0.0
 30
0.0
  3
SKB_A3__S
  1

  0
LINE
  5
57F
100
AcDbEntity
  8
1
  6
CONTINUOUS
 62
           2
100
AcDbLine
 10
-668.920630199253
 20
-1239.609623407273
 11
-668.920630199253
 21
-1232.609623407273
  0
LINE
  5
57E
100
AcDbEntity
  8
1
  6
CONTINUOUS
 62
           2
100
AcDbLine
 10
-332.920630199253
 20
-1239.609623407273
 11
-668.920630199253
 21
-1239.609623407273
  0
LINE
  5
57D
100
AcDbEntity
  8
1
  6
PHANTOM
 62
           4
100
AcDbLine
 10
-318.920630199253
 20
-1249.609623407273
 11
-318.920630199253
 21
-963.609623407273
  0
LINE
  5
57C
100
AcDbEntity
  8
1
  6
PHANTOM
 62
           4
100
AcDbLine
 10
-727.920630199253
 20
-1249.609623407273
 11
-318.920630199253
 21
-1249.609623407273
  0
LINE
  5
57B
100
AcDbEntity
  8
1
  6
PHANTOM
 62
           4
100
AcDbLine
 10
-318.920630199253
 20
-963.609623407273
 11
-727.920630199253
 21
-963.609623407273
  0
LINE
  5
57A
100
AcDbEntity
  8
1
  6
PHANTOM
 62
           4
100
AcDbLine
 10
-727.920630199253
 20
-963.609623407273
 11
-727.920630199253
 21
-1249.609623407273
  0
LINE
  5
579
100
AcDbEntity
  8
1
  6
CONTINUOUS
 62
           2
100
AcDbLine
 10
-332.920630199253
 20
-1232.609623407273
 11
-332.920630199253
 21
-1239.609623407273
  0
LINE
  5
578
100
AcDbEntity
  8
1
  6
CONTINUOUS
 62
           2
100
AcDbLine
 10
-620.920630199253
 20
-1239.609623407274
 11
-620.920630199253
 21
-1232.609623407273
  0
LINE
  5
577
100
AcDbEntity
  8
1
  6
CONTINUOUS
 62
           2
100
AcDbLine
 10
-572.920630199253
 20
-1239.609623407273
 11
-572.920630199253
 21
-1232.609623407273
  0
LINE
  5
576
100
AcDbEntity
  8
1
  6
CONTINUOUS
 62
           2
100
AcDbLine
 10
-524.920630199253
 20
-1239.609623407273
 11
-524.920630199253
 21
-1232.609623407273
  0
LINE
  5
575
100
AcDbEntity
  8
1
  6
CONTINUOUS
 62
           2
100
AcDbLine
 10
-476.920630199253
 20
-1239.609623407273
 11
-476.920630199253
 21
-1232.609623407273
  0
LINE
  5
574
100
AcDbEntity
  8
1
  6
CONTINUOUS
 62
           2
100
AcDbLine
 10
-428.920630199253
 20
-1239.609623407273
 11
-428.920630199253
 21
-1232.609623407273
  0
LINE
  5
573
100
AcDbEntity
  8
1
  6
CONTINUOUS
 62
           2
100
AcDbLine
 10
-380.920630199253
 20
-1239.609623407273
 11
-380.920630199253
 21
-1232.609623407273
  0
ENDBLK
  5
580
100
AcDbEntity
  8
0
100
AcDbBlockEnd
  0
BLOCK
  5
AB
100
AcDbEntity
  8
0
100
AcDbBlockBegin
  2
SKB_A3_MI
 70
           0
 10
0.0
 20
0.0
 30
0.0
  3
SKB_A3_MI
  1

  0
INSERT
  5
AC
100
AcDbEntity
  8
0
100
AcDbBlockReference
  2
SKB_A3__S
 10
431.0
 20
-302.0
  0
ENDBLK
  5
581
100
AcDbEntity
  8
0
100
AcDbBlockEnd
  0
BLOCK
  5
AE
100
AcDbEntity
  8
0
100
AcDbBlockBegin
  2
X_A______33
 70
           0
 10
0.0
 20
0.0
 30
0.0
  3
X_A______33
  1

  0
LINE
  5
586
100
AcDbEntity
  8
1
  6
DOT_CENTER
 62
           4
100
AcDbLine
 10
-221.81299815416
 20
-1497.912360034587
 11
-218.31299815416
 21
-1497.912360034587
  0
LINE
  5
585
100
AcDbEntity
  8
1
  6
CONTINUOUS
 62
           7
100
AcDbLine
 10
-219.31299815416
 20
-1463.412360034587
 11
-219.31299815416
 21
-1506.912360034587
  0
LINE
  5
584
100
AcDbEntity
  8
1
  6
CONTINUOUS
 62
           7
100
AcDbLine
 10
-219.31299815416
 20
-1506.912360034587
 11
-220.81299815416
 21
-1506.912360034587
  0
LINE
  5
583
100
AcDbEntity
  8
1
  6
CONTINUOUS
 62
           7
100
AcDbLine
 10
-220.81299815416
 20
-1506.912360034587
 11
-220.81299815416
 21
-1463.412360034587
  0
LINE
  5
582
100
AcDbEntity
  8
1
  6
DOT_CENTER
 62
           4
100
AcDbLine
 10
-221.81299815416
 20
-1473.912360034587
 11
-218.31299815416
 21
-1473.912360034587
  0
ENDBLK
  5
587
100
AcDbEntity
  8
0
100
AcDbBlockEnd
  0
BLOCK
  5
B0
100
AcDbEntity
  8
0
100
AcDbBlockBegin
  2
____
 70
           0
 10
0.0
 20
0.0
 30
0.0
  3
____
  1

  0
ARC
  5
5A8
100
AcDbEntity
  8
1
  6
CONTINUOUS
 62
           7
100
AcDbCircle
 10
-222.81299815416
 20
-1477.40949902264
 40
2.000000000001
100
AcDbArc
 50
-73.21443532788
 51
0.0
  0
ARC
  5
5A7
100
AcDbEntity
  8
1
  6
CONTINUOUS
 62
           7
100
AcDbCircle
 10
-222.81299815415
 20
-1477.40949902264
 40
0.999999999999
100
AcDbArc
 50
-73.214435327894
 51
0.0
  0
ARC
  5
5A6
100
AcDbEntity
  8
1
  6
CONTINUOUS
 62
           7
100
AcDbCircle
 10
-221.893367308315
 20
-1492.121657080392
 40
0.600000000001
100
AcDbArc
 50
93.429537677219
 51
-176.570462322796
  0
ARC
  5
5A5
100
AcDbEntity
  8
1
  6
CONTINUOUS
 62
           7
100
AcDbCircle
 10
-221.186207212302
 20
-1503.921757376881
 40
0.599999999999
100
AcDbArc
 50
-176.57046232279
 51
-86.570462322732
  0
ARC
  5
5A4
100
AcDbEntity
  8
1
  6
CONTINUOUS
 62
           7
100
AcDbCircle
 10
-221.044511608615
 20
-1504.614521662837
 40
0.100000000001
100
AcDbArc
 50
3.429537677022
 51
93.429537676908
  0
ARC
  5
5A3
100
AcDbEntity
  8
1
  6
CONTINUOUS
 62
           7
100
AcDbCircle
 10
-221.835421087788
 20
-1491.416928596842
 40
0.1
100
AcDbArc
 50
-86.570462323174
 51
3.429537677583
  0
ARC
  5
5A2
100
AcDbEntity
  8
1
  6
CONTINUOUS
 62
           7
100
AcDbCircle
 10
-225.817737157727
 20
-1490.780234560296
 40
3.999999999999
100
AcDbArc
 50
0.015368816296
 51
17.707878666098
  0
ARC
  5
5A1
100
AcDbEntity
  8
1
  6
CONTINUOUS
 62
           7
100
AcDbCircle
 10
-225.81299815416
 20
-1490.808001450793
 40
5.0
100
AcDbArc
 50
0.0
 51
18.207064221961
  0
ARC
  5
5A0
100
AcDbEntity
  8
1
  6
CONTINUOUS
 62
           7
100
AcDbCircle
 10
-222.31299815415
 20
-1475.862360034587
 40
0.299999999999
100
AcDbArc
 50
180.0
 51
-90.0
  0
ARC
  5
59F
100
AcDbEntity
  8
1
  6
CONTINUOUS
 62
           7
100
AcDbCircle
 10
-222.31299815415
 20
-1471.962360034587
 40
0.3
100
AcDbArc
 50
90.0
 51
180.0
  0
ARC
  5
59E
100
AcDbEntity
  8
1
  6
CONTINUOUS
 62
           7
100
AcDbCircle
 10
-224.011866557199
 20
-1480.912360034587
 40
1.997816270631
100
AcDbArc
 50
180.0
 51
-155.123903805652
  0
ARC
  5
59D
100
AcDbEntity
  8
1
  6
CONTINUOUS
 62
           7
100
AcDbCircle
 10
-224.011866557199
 20
-1480.912360034587
 40
0.997816270631
100
AcDbArc
 50
180.0
 51
-155.189368976544
  0
ARC
  5
59C
100
AcDbEntity
  8
1
  6
CONTINUOUS
 62
           7
100
AcDbCircle
 10
-224.011866557199
 20
-1480.912360034587
 40
0.997816270631
100
AcDbArc
 50
106.785564672061
 51
180.0
  0
ARC
  5
59B
100
AcDbEntity
  8
1
  6
CONTINUOUS
 62
           7
100
AcDbCircle
 10
-224.011866557199
 20
-1480.912360034587
 40
1.997816270631
100
AcDbArc
 50
106.785564672075
 51
180.0
  0
LINE
  5
59A
100
AcDbEntity
  8
1
  6
CONTINUOUS
 62
           7
100
AcDbLine
 10
-225.824324618206
 20
-1481.752756148504
 11
-222.007258497459
 21
-1489.563578331263
  0
LINE
  5
599
100
AcDbEntity
  8
1
  6
CONTINUOUS
 62
           7
100
AcDbLine
 10
-224.917584021946
 20
-1481.331064206989
 11
-221.06333047764
 21
-1489.245741241154
  0
LINE
  5
598
100
AcDbEntity
  8
1
  6
CONTINUOUS
 62
           7
100
AcDbLine
 10
-224.30002651356
 20
-1479.957058433266
 11
-222.235416960419
 21
-1479.324283596591
  0
LINE
  5
597
100
AcDbEntity
  8
1
  6
CONTINUOUS
 62
           7
100
AcDbLine
 10
-224.58881711043
 20
-1478.999666146291
 11
-222.52420755728
 21
-1478.366891309614
  0
LINE
  5
596
100
AcDbEntity
  8
1
  6
CONTINUOUS
 62
           7
100
AcDbLine
 10
-226.009682827829
 20
-1480.912360034587
 11
-226.011866557199
 21
-1480.893692807463
  0
LINE
  5
595
100
AcDbEntity
  8
1
  6
CONTINUOUS
 62
           7
100
AcDbLine
 10
-221.81299815415
 20
-1468.912360034587
 11
-221.81299815415
 21
-1477.40949902264
  0
LINE
  5
594
100
AcDbEntity
  8
1
  6
CONTINUOUS
 62
           7
100
AcDbLine
 10
-221.81299815415
 20
-1468.912360034587
 11
-220.81299815416
 21
-1468.912360034587
  0
LINE
  5
593
100
AcDbEntity
  8
1
  6
CONTINUOUS
 62
           7
100
AcDbLine
 10
-220.81299815416
 20
-1468.912360034587
 11
-220.81299815416
 21
-1477.40949902264
  0
LINE
  5
592
100
AcDbEntity
  8
1
  6
CONTINUOUS
 62
           7
100
AcDbLine
 10
-220.811629750892
 20
-1506.828874835556
 11
-219.812960252006
 21
-1506.769347845638
  0
LINE
  5
591
100
AcDbEntity
  8
1
  6
CONTINUOUS
 62
           7
100
AcDbLine
 10
-222.49229278096
 20
-1492.157549673175
 11
-221.785132684946
 21
-1503.957649969664
  0
LINE
  5
590
100
AcDbEntity
  8
1
  6
CONTINUOUS
 62
           7
100
AcDbLine
 10
-221.150314619518
 20
-1504.520682849527
 11
-221.050493707411
 21
-1504.514700750729
  0
LINE
  5
58F
100
AcDbEntity
  8
1
  6
CONTINUOUS
 62
           7
100
AcDbLine
 10
-221.929259901098
 20
-1491.522731607746
 11
-221.829438988992
 21
-1491.516749508949
  0
LINE
  5
58E
100
AcDbEntity
  8
1
  6
CONTINUOUS
 62
           7
100
AcDbLine
 10
-221.76995828984
 20
-1490.837626262119
 11
-220.811629750892
 21
-1506.828874835556
  0
LINE
  5
58D
100
AcDbEntity
  8
1
  6
CONTINUOUS
 62
           4
100
AcDbLine
 10
-220.81299815416
 20
-1490.808001450793
 11
-220.81299815416
 21
-1490.006815060921
  0
LINE
  5
58C
100
AcDbEntity
  8
1
  6
CONTINUOUS
 62
           4
100
AcDbLine
 10
-220.81299815416
 20
-1490.006815060921
 11
-221.06333047764
 21
-1489.245741241154
  0
LINE
  5
58B
100
AcDbEntity
  8
1
  6
CONTINUOUS
 62
           7
100
AcDbLine
 10
-219.812960252006
 20
-1506.769347845638
 11
-220.765284917007
 21
-1490.806579450174
  0
LINE
  5
58A
100
AcDbEntity
  8
1
  6
CONTINUOUS
 62
           7
100
AcDbLine
 10
-222.612998154149
 20
-1475.862360034587
 11
-222.612998154149
 21
-1471.962360034587
  0
LINE
  5
589
100
AcDbEntity
  8
1
  6
CONTINUOUS
 62
           7
100
AcDbLine
 10
-221.81299815415
 20
-1476.162360034587
 11
-222.31299815415
 21
-1476.162360034587
  0
LINE
  5
588
100
AcDbEntity
  8
1
  6
CONTINUOUS
 62
           7
100
AcDbLine
 10
-222.31299815415
 20
-1471.662360034587
 11
-221.81299815415
 21
-1471.662360034587
  0
ENDBLK
  5
5A9
100
AcDbEntity
  8
0
100
AcDbBlockEnd
  0
BLOCK
  5
612
100
AcDbEntity
  8
0
100
AcDbBlockBegin
  2
*D55
 70
           1
 10
0.0
 20
0.0
 30
0.0
  3
*D55
  1

  0
LINE
  5
613
100
AcDbEntity
  8
0
  6
CONTINUOUS
 62
           2
100
AcDbLine
 10
26.27904980703
 20
-1374.833425161017
 11
69.279049807026
 21
-1374.833425161017
  0
LINE
  5
614
100
AcDbEntity
  8
0
  6
CONTINUOUS
 62
           2
100
AcDbLine
 10
69.279049807026
 20
-1342.301008752528
 11
69.279049807026
 21
-1376.833425161017
  0
LINE
  5
615
100
AcDbEntity
  8
0
  6
CONTINUOUS
 62
           2
100
AcDbLine
 10
26.27904980703
 20
-1338.15100875253
 11
26.27904980703
 21
-1376.833425161017
  0
LINE
  5
616
100
AcDbEntity
  8
0
 62
           2
100
AcDbLine
 10
26.27904980703
 20
-1374.833425161017
 11
29.77904980703
 21
-1373.895602987508
  0
LINE
  5
617
100
AcDbEntity
  8
0
 62
           2
100
AcDbLine
 10
26.27904980703
 20
-1374.833425161017
 11
29.77904980703
 21
-1375.771247334526
  0
LINE
  5
618
100
AcDbEntity
  8
0
 62
           2
100
AcDbLine
 10
69.279049807026
 20
-1374.833425161017
 11
65.779049807026
 21
-1375.771247334526
  0
LINE
  5
619
100
AcDbEntity
  8
0
 62
           2
100
AcDbLine
 10
69.279049807026
 20
-1374.833425161017
 11
65.779049807026
 21
-1373.895602987508
  0
TEXT
  5
61B
100
AcDbEntity
  8
0
 62
           3
100
AcDbText
 10
45.470603346299
 20
-1372.833425161017
 40
2.625
  1
43
 41
1.2
  7
CONVERTER_6
100
AcDbText
  0
ENDBLK
  5
61C
100
AcDbEntity
  8
0
100
AcDbBlockEnd
  0
BLOCK
  5
622
100
AcDbEntity
  8
0
100
AcDbBlockBegin
  2
*D58
 70
           1
 10
0.0
 20
0.0
 30
0.0
  3
*D58
  1

  0
LINE
  5
623
100
AcDbEntity
  8
0
  6
CONTINUOUS
 62
           2
100
AcDbLine
 10
-205.220630199248
 20
-1298.97305935817
 11
-162.220630199253
 21
-1298.97305935817
  0
LINE
  5
624
100
AcDbEntity
  8
0
  6
CONTINUOUS
 62
           2
100
AcDbLine
 10
-162.220630199253
 20
-1367.712360034583
 11
-162.220630199253
 21
-1296.97305935817
  0
LINE
  5
625
100
AcDbEntity
  8
0
  6
CONTINUOUS
 62
           2
100
AcDbLine
 10
-205.220630199248
 20
-1324.212360034584
 11
-205.220630199248
 21
-1296.97305935817
  0
LINE
  5
626
100
AcDbEntity
  8
0
 62
           2
100
AcDbLine
 10
-205.220630199248
 20
-1298.97305935817
 11
-201.720630199248
 21
-1298.035237184661
  0
LINE
  5
627
100
AcDbEntity
  8
0
 62
           2
100
AcDbLine
 10
-205.220630199248
 20
-1298.97305935817
 11
-201.720630199248
 21
-1299.910881531679
  0
LINE
  5
628
100
AcDbEntity
  8
0
 62
           2
100
AcDbLine
 10
-162.220630199253
 20
-1298.97305935817
 11
-165.720630199253
 21
-1299.910881531679
  0
LINE
  5
629
100
AcDbEntity
  8
0
 62
           2
100
AcDbLine
 10
-162.220630199253
 20
-1298.97305935817
 11
-165.720630199253
 21
-1298.035237184661
  0
TEXT
  5
62A
100
AcDbEntity
  8
0
 62
           3
100
AcDbText
 10
-186.029076659979
 20
-1296.97305935817
 40
2.625
  1
43
 41
1.2
  7
CONVERTER_6
100
AcDbText
  0
ENDBLK
  5
62B
100
AcDbEntity
  8
0
100
AcDbBlockEnd
  0
BLOCK
  5
631
100
AcDbEntity
  8
0
100
AcDbBlockBegin
  2
*D61
 70
           1
 10
0.0
 20
0.0
 30
0.0
  3
*D61
  1

  0
LINE
  5
632
100
AcDbEntity
  8
0
  6
CONTINUOUS
 62
           2
100
AcDbLine
 10
-67.05798950632
 20
-1299.48698444909
 11
-78.507989501509
 21
-1299.48698444909
  0
LINE
  5
633
100
AcDbEntity
  8
0
  6
CONTINUOUS
 62
           2
100
AcDbLine
 10
-78.507989501509
 20
-1367.712360034583
 11
-78.507989501509
 21
-1297.48698444909
  0
LINE
  5
634
100
AcDbEntity
  8
0
  6
CONTINUOUS
 62
           2
100
AcDbLine
 10
-67.05798950632
 20
-1310.212360034683
 11
-67.05798950632
 21
-1297.48698444909
  0
LINE
  5
635
100
AcDbEntity
  8
0
 62
           2
100
AcDbLine
 10
-67.05798950632
 20
-1299.48698444909
 11
-70.55798950632
 21
-1300.424806622599
  0
LINE
  5
636
100
AcDbEntity
  8
0
 62
           2
100
AcDbLine
 10
-67.05798950632
 20
-1299.48698444909
 11
-70.55798950632
 21
-1298.549162275581
  0
LINE
  5
637
100
AcDbEntity
  8
0
 62
           2
100
AcDbLine
 10
-78.507989501509
 20
-1299.48698444909
 11
-75.007989501509
 21
-1298.549162275581
  0
LINE
  5
638
100
AcDbEntity
  8
0
 62
           2
100
AcDbLine
 10
-78.507989501509
 20
-1299.48698444909
 11
-75.007989501509
 21
-1300.424806622599
  0
TEXT
  5
639
100
AcDbEntity
  8
0
 62
           3
100
AcDbText
 10
-76.872685964644
 20
-1297.48698444909
 40
2.625
  1
11.4
 41
1.2
  7
CONVERTER_6
100
AcDbText
  0
ENDBLK
  5
63A
100
AcDbEntity
  8
0
100
AcDbBlockEnd
  0
BLOCK
  5
640
100
AcDbEntity
  8
0
100
AcDbBlockBegin
  2
*D64
 70
           1
 10
0.0
 20
0.0
 30
0.0
  3
*D64
  1

  0
LINE
  5
641
100
AcDbEntity
  8
0
  6
CONTINUOUS
 62
           2
100
AcDbLine
 10
-31.557989508607
 20
-1299.48698444909
 11
-67.057989506321
 21
-1299.48698444909
  0
LINE
  5
642
100
AcDbEntity
  8
0
  6
CONTINUOUS
 62
           2
100
AcDbLine
 10
-67.057989506321
 20
-1310.212360034683
 11
-67.057989506321
 21
-1297.48698444909
  0
LINE
  5
643
100
AcDbEntity
  8
0
  6
CONTINUOUS
 62
           2
100
AcDbLine
 10
-31.557989508607
 20
-1310.212360034439
 11
-31.557989508607
 21
-1297.48698444909
  0
LINE
  5
644
100
AcDbEntity
  8
0
 62
           2
100
AcDbLine
 10
-31.557989508607
 20
-1299.48698444909
 11
-35.057989508607
 21
-1300.424806622599
  0
LINE
  5
645
100
AcDbEntity
  8
0
 62
           2
100
AcDbLine
 10
-31.557989508607
 20
-1299.48698444909
 11
-35.057989508607
 21
-1298.549162275581
  0
LINE
  5
646
100
AcDbEntity
  8
0
 62
           2
100
AcDbLine
 10
-67.057989506321
 20
-1299.48698444909
 11
-63.557989506321
 21
-1298.549162275581
  0
LINE
  5
647
100
AcDbEntity
  8
0
 62
           2
100
AcDbLine
 10
-67.057989506321
 20
-1299.48698444909
 11
-63.557989506321
 21
-1300.424806622599
  0
TEXT
  5
648
100
AcDbEntity
  8
0
 62
           3
100
AcDbText
 10
-53.397685968193
 20
-1297.48698444909
 40
2.625
  1
35.5
 41
1.2
  7
CONVERTER_6
100
AcDbText
  0
ENDBLK
  5
649
100
AcDbEntity
  8
0
100
AcDbBlockEnd
  0
BLOCK
  5
64F
100
AcDbEntity
  8
0
100
AcDbBlockBegin
  2
*D67
 70
           1
 10
0.0
 20
0.0
 30
0.0
  3
*D67
  1

  0
LINE
  5
650
100
AcDbEntity
  8
0
  6
CONTINUOUS
 62
           2
100
AcDbLine
 10
-31.557989508607
 20
-1290.37380840778
 11
-78.507989501509
 21
-1290.37380840778
  0
LINE
  5
651
100
AcDbEntity
  8
0
  6
CONTINUOUS
 62
           2
100
AcDbLine
 10
-78.507989501509
 20
-1367.712360034583
 11
-78.507989501509
 21
-1288.37380840778
  0
LINE
  5
652
100
AcDbEntity
  8
0
  6
CONTINUOUS
 62
           2
100
AcDbLine
 10
-31.557989508607
 20
-1310.212360034439
 11
-31.557989508607
 21
-1288.37380840778
  0
LINE
  5
653
100
AcDbEntity
  8
0
 62
           2
100
AcDbLine
 10
-31.557989508607
 20
-1290.37380840778
 11
-35.057989508607
 21
-1291.311630581289
  0
LINE
  5
654
100
AcDbEntity
  8
0
 62
           2
100
AcDbLine
 10
-31.557989508607
 20
-1290.37380840778
 11
-35.057989508607
 21
-1289.435986234271
  0
LINE
  5
655
100
AcDbEntity
  8
0
 62
           2
100
AcDbLine
 10
-78.507989501509
 20
-1290.37380840778
 11
-75.007989501509
 21
-1289.435986234271
  0
LINE
  5
656
100
AcDbEntity
  8
0
 62
           2
100
AcDbLine
 10
-78.507989501509
 20
-1290.37380840778
 11
-75.007989501509
 21
-1291.311630581289
  0
TEXT
  5
657
100
AcDbEntity
  8
0
 62
           3
100
AcDbText
 10
-59.122685965787
 20
-1288.37380840778
 40
2.625
  1
46.9
 41
1.2
  7
CONVERTER_6
100
AcDbText
  0
ENDBLK
  5
658
100
AcDbEntity
  8
0
100
AcDbBlockEnd
  0
BLOCK
  5
65E
100
AcDbEntity
  8
0
100
AcDbBlockBegin
  2
*D70
 70
           1
 10
0.0
 20
0.0
 30
0.0
  3
*D70
  1

  0
LINE
  5
65F
100
AcDbEntity
  8
0
  6
CONTINUOUS
 62
           2
100
AcDbLine
 10
-4.877174834539
 20
-1306.70100875253
 11
-4.877174834539
 21
-1274.94985554033
  0
LINE
  5
660
100
AcDbEntity
  8
0
  6
CONTINUOUS
 62
           2
100
AcDbLine
 10
-4.877174834539
 20
-1274.94985554033
 11
52.044111008378
 21
-1274.94985554033
  0
LINE
  5
661
100
AcDbEntity
  8
0
  6
CONTINUOUS
 62
           2
100
AcDbLine
 10
31.079319907471
 20
-1294.70089875253
 11
-6.877174834539
 21
-1294.70089875253
  0
LINE
  5
662
100
AcDbEntity
  8
0
  6
CONTINUOUS
 62
           2
100
AcDbLine
 10
25.57904980703
 20
-1299.70100875253
 11
-6.877174834539
 21
-1299.70100875253
  0
LINE
  5
663
100
AcDbEntity
  8
0
 62
           2
100
AcDbLine
 10
-4.877174834539
 20
-1299.70100875253
 11
-3.93935266103
 21
-1303.20100875253
  0
LINE
  5
664
100
AcDbEntity
  8
0
 62
           2
100
AcDbLine
 10
-4.877174834539
 20
-1299.70100875253
 11
-5.814997008048
 21
-1303.20100875253
  0
LINE
  5
665
100
AcDbEntity
  8
0
 62
           2
100
AcDbLine
 10
-4.877174834539
 20
-1294.70089875253
 11
-5.814997008048
 21
-1291.20089875253
  0
LINE
  5
666
100
AcDbEntity
  8
0
 62
           2
100
AcDbLine
 10
-4.877174834539
 20
-1294.70089875253
 11
-3.93935266103
 21
-1291.20089875253
  0
MTEXT
  5
668
100
AcDbEntity
  8
0
 62
           3
100
AcDbMText
 10
0.622825165461
 20
-1272.94985554033
 30
0.0
 40
2.625
 41
0.0
 71
           7
 72
           1
  1
\C3;5\C3;以上(5mm以下の場合はご相談下さい)
  7
CONVERTER_7
  0
ENDBLK
  5
669
100
AcDbEntity
  8
0
100
AcDbBlockEnd
  0
BLOCK
  5
66F
100
AcDbEntity
  8
0
100
AcDbBlockBegin
  2
*D73
 70
           1
 10
0.0
 20
0.0
 30
0.0
  3
*D73
  1

  0
LINE
  5
670
100
AcDbEntity
  8
0
  6
CONTINUOUS
 62
           2
100
AcDbLine
 10
19.279049807029
 20
-1284.300483841204
 11
26.279049807029
 21
-1284.300483841204
  0
LINE
  5
671
100
AcDbEntity
  8
0
  6
CONTINUOUS
 62
           2
100
AcDbLine
 10
26.279049807029
 20
-1284.300483841204
 11
35.77904980703
 21
-1284.300483841204
  0
LINE
  5
672
100
AcDbEntity
  8
0
  6
CONTINUOUS
 62
           2
100
AcDbLine
 10
35.77904980703
 20
-1284.300483841204
 11
42.77904980703
 21
-1284.300483841204
  0
LINE
  5
673
100
AcDbEntity
  8
0
  6
CONTINUOUS
 62
           2
100
AcDbLine
 10
35.77904980703
 20
-1299.00100875253
 11
35.77904980703
 21
-1282.300483841204
  0
LINE
  5
674
100
AcDbEntity
  8
0
  6
CONTINUOUS
 62
           2
100
AcDbLine
 10
26.279049807029
 20
-1299.001008753348
 11
26.279049807029
 21
-1282.300483841204
  0
LINE
  5
675
100
AcDbEntity
  8
0
 62
           2
100
AcDbLine
 10
26.279049807029
 20
-1284.300483841204
 11
22.779049807029
 21
-1285.238306014713
  0
LINE
  5
676
100
AcDbEntity
  8
0
 62
           2
100
AcDbLine
 10
26.279049807029
 20
-1284.300483841204
 11
22.779049807029
 21
-1283.362661667695
  0
LINE
  5
677
100
AcDbEntity
  8
0
 62
           2
100
AcDbLine
 10
35.77904980703
 20
-1284.300483841204
 11
39.27904980703
 21
-1283.362661667695
  0
LINE
  5
678
100
AcDbEntity
  8
0
 62
           2
100
AcDbLine
 10
35.77904980703
 20
-1284.300483841204
 11
39.27904980703
 21
-1285.238306014713
  0
TEXT
  5
679
100
AcDbEntity
  8
0
 62
           3
100
AcDbText
 10
28.064353346302
 20
-1282.300483841204
 40
2.625
  1
9.5
 41
1.2
  7
CONVERTER_6
100
AcDbText
  0
ENDBLK
  5
67A
100
AcDbEntity
  8
0
100
AcDbBlockEnd
  0
BLOCK
  5
680
100
AcDbEntity
  8
0
100
AcDbBlockBegin
  2
*D76
 70
           1
 10
0.0
 20
0.0
 30
0.0
  3
*D76
  1

  0
LINE
  5
681
100
AcDbEntity
  8
0
  6
CONTINUOUS
 62
           2
100
AcDbLine
 10
-4.877174834539
 20
-1335.701008752531
 11
-4.877174834539
 21
-1299.701008752531
  0
LINE
  5
682
100
AcDbEntity
  8
0
  6
CONTINUOUS
 62
           2
100
AcDbLine
 10
25.57904980703
 20
-1299.701008752531
 11
-6.877174834539
 21
-1299.701008752531
  0
LINE
  5
683
100
AcDbEntity
  8
0
  6
CONTINUOUS
 62
           2
100
AcDbLine
 10
25.57904980703
 20
-1335.701008752531
 11
-6.877174834539
 21
-1335.701008752531
  0
LINE
  5
684
100
AcDbEntity
  8
0
 62
           2
100
AcDbLine
 10
-4.877174834539
 20
-1335.701008752531
 11
-5.814997008048
 21
-1332.201008752531
  0
LINE
  5
685
100
AcDbEntity
  8
0
 62
           2
100
AcDbLine
 10
-4.877174834539
 20
-1335.701008752531
 11
-3.93935266103
 21
-1332.201008752531
  0
LINE
  5
686
100
AcDbEntity
  8
0
 62
           2
100
AcDbLine
 10
-4.877174834539
 20
-1299.701008752531
 11
-3.93935266103
 21
-1303.201008752531
  0
LINE
  5
687
100
AcDbEntity
  8
0
 62
           2
100
AcDbLine
 10
-4.877174834539
 20
-1299.701008752531
 11
-5.814997008048
 21
-1303.201008752531
  0
MTEXT
  5
688
100
AcDbEntity
  8
0
 62
           3
100
AcDbMText
 10
-6.877174834539
 20
-1326.724151673989
 30
0.0
 40
2.625
 41
0.0
 71
           7
 72
           1
  1
\C3;36\C3;(本体幅)
  7
CONVERTER_7
 11
0.0
 21
1.0
 31
0.0
  0
ENDBLK
  5
689
100
AcDbEntity
  8
0
100
AcDbBlockEnd
  0
BLOCK
  5
68F
100
AcDbEntity
  8
0
100
AcDbBlockBegin
  2
*D79
 70
           1
 10
0.0
 20
0.0
 30
0.0
  3
*D79
  1

  0
LINE
  5
690
100
AcDbEntity
  8
0
  6
CONTINUOUS
 62
           2
100
AcDbLine
 10
39.27904980703
 20
-1363.614737195518
 11
32.27904980703
 21
-1363.614737195518
  0
LINE
  5
691
100
AcDbEntity
  8
0
  6
CONTINUOUS
 62
           2
100
AcDbLine
 10
32.27904980703
 20
-1363.614737195518
 11
26.27904980703
 21
-1363.614737195518
  0
LINE
  5
692
100
AcDbEntity
  8
0
  6
CONTINUOUS
 62
           2
100
AcDbLine
 10
26.27904980703
 20
-1363.614737195518
 11
11.706420191767
 21
-1363.614737195518
  0
LINE
  5
693
100
AcDbEntity
  8
0
  6
CONTINUOUS
 62
           2
100
AcDbLine
 10
26.27904980703
 20
-1338.151008752531
 11
26.27904980703
 21
-1365.614737195518
  0
LINE
  5
694
100
AcDbEntity
  8
0
  6
CONTINUOUS
 62
           2
100
AcDbLine
 10
32.27904980703
 20
-1329.101008752477
 11
32.27904980703
 21
-1365.614737195518
  0
LINE
  5
695
100
AcDbEntity
  8
0
 62
           2
100
AcDbLine
 10
32.27904980703
 20
-1363.614737195518
 11
35.77904980703
 21
-1362.676915022009
  0
LINE
  5
696
100
AcDbEntity
  8
0
 62
           2
100
AcDbLine
 10
32.27904980703
 20
-1363.614737195518
 11
35.77904980703
 21
-1364.552559369027
  0
LINE
  5
697
100
AcDbEntity
  8
0
 62
           2
100
AcDbLine
 10
26.27904980703
 20
-1363.614737195518
 11
22.77904980703
 21
-1364.552559369027
  0
LINE
  5
698
100
AcDbEntity
  8
0
 62
           2
100
AcDbLine
 10
26.27904980703
 20
-1363.614737195518
 11
22.77904980703
 21
-1362.676915022009
  0
MTEXT
  5
699
100
AcDbEntity
  8
0
 62
           3
100
AcDbMText
 10
11.706420191767
 20
-1361.614737195518
 30
0.0
 40
2.625
 41
0.0
 71
           7
 72
           1
  1
\C3;6\C3;\H2.100000;{\Fgdt;`}0.5
  7
CONVERTER_6
  0
ENDBLK
  5
69A
100
AcDbEntity
  8
0
100
AcDbBlockEnd
  0
BLOCK
  5
6A0
100
AcDbEntity
  8
0
100
AcDbBlockBegin
  2
*D82
 70
           1
 10
0.0
 20
0.0
 30
0.0
  3
*D82
  1

  0
LINE
  5
6A1
100
AcDbEntity
  8
0
  6
CONTINUOUS
 62
           2
100
AcDbLine
 10
-55.157989501509
 20
-1469.65540919552
 11
73.005314964514
 21
-1469.65540919552
  0
LINE
  5
6A2
100
AcDbEntity
  8
0
  6
CONTINUOUS
 62
           2
100
AcDbLine
 10
73.005314964514
 20
-1450.612360034584
 11
73.005314964514
 21
-1471.65540919552
  0
LINE
  5
6A3
100
AcDbEntity
  8
0
  6
CONTINUOUS
 62
           2
100
AcDbLine
 10
-55.157989501509
 20
-1452.612360034584
 11
-55.157989501509
 21
-1471.65540919552
  0
LINE
  5
6A4
100
AcDbEntity
  8
0
 62
           2
100
AcDbLine
 10
-55.157989501509
 20
-1469.65540919552
 11
-51.657989501509
 21
-1468.717587022011
  0
LINE
  5
6A5
100
AcDbEntity
  8
0
 62
           2
100
AcDbLine
 10
-55.157989501509
 20
-1469.65540919552
 11
-51.657989501509
 21
-1470.593231369029
  0
LINE
  5
6A6
100
AcDbEntity
  8
0
 62
           2
100
AcDbLine
 10
73.005314964514
 20
-1469.65540919552
 11
69.505314964514
 21
-1470.593231369029
  0
LINE
  5
6A7
100
AcDbEntity
  8
0
 62
           2
100
AcDbLine
 10
73.005314964514
 20
-1469.65540919552
 11
69.505314964514
 21
-1468.717587022011
  0
MTEXT
  5
6A8
100
AcDbEntity
  8
0
 62
           3
100
AcDbMText
 10
3.306466270773
 20
-1467.65540919552
 30
0.0
 40
2.625
 41
0.0
 71
           7
 72
           1
  1
\C3;(\C3;128\C3;)
  7
CONVERTER_6
  0
ENDBLK
  5
6A9
100
AcDbEntity
  8
0
100
AcDbBlockEnd
  0
BLOCK
  5
6AF
100
AcDbEntity
  8
0
100
AcDbBlockBegin
  2
*D85
 70
           1
 10
0.0
 20
0.0
 30
0.0
  3
*D85
  1

  0
LINE
  5
6B0
100
AcDbEntity
  8
0
  6
CONTINUOUS
 62
           2
100
AcDbLine
 10
-41.557989501509
 20
-1430.31696717461
 11
-48.557989501509
 21
-1430.31696717461
  0
LINE
  5
6B1
100
AcDbEntity
  8
0
  6
CONTINUOUS
 62
           2
100
AcDbLine
 10
-48.557989501509
 20
-1430.31696717461
 11
-55.157989501509
 21
-1430.31696717461
  0
LINE
  5
6B2
100
AcDbEntity
  8
0
  6
CONTINUOUS
 62
           2
100
AcDbLine
 10
-55.157989501509
 20
-1430.31696717461
 11
-76.740665298169
 21
-1430.31696717461
  0
LINE
  5
6B3
100
AcDbEntity
  8
0
  6
CONTINUOUS
 62
           2
100
AcDbLine
 10
-55.157989501509
 20
-1434.212360034584
 11
-55.157989501509
 21
-1428.31696717461
  0
LINE
  5
6B4
100
AcDbEntity
  8
0
  6
CONTINUOUS
 62
           2
100
AcDbLine
 10
-48.557989501509
 20
-1409.612360034584
 11
-48.557989501509
 21
-1432.31696717461
  0
LINE
  5
6B5
100
AcDbEntity
  8
0
 62
           2
100
AcDbLine
 10
-48.557989501509
 20
-1430.31696717461
 11
-45.057989501509
 21
-1429.379145001101
  0
LINE
  5
6B6
100
AcDbEntity
  8
0
 62
           2
100
AcDbLine
 10
-48.557989501509
 20
-1430.31696717461
 11
-45.057989501509
 21
-1431.254789348119
  0
LINE
  5
6B7
100
AcDbEntity
  8
0
 62
           2
100
AcDbLine
 10
-55.157989501509
 20
-1430.31696717461
 11
-58.657989501509
 21
-1431.254789348119
  0
LINE
  5
6B8
100
AcDbEntity
  8
0
 62
           2
100
AcDbLine
 10
-55.157989501509
 20
-1430.31696717461
 11
-58.657989501509
 21
-1429.379145001101
  0
TEXT
  5
6B9
100
AcDbEntity
  8
0
 62
           3
100
AcDbText
 10
-76.740665298169
 20
-1428.31696717461
 40
2.625
  1
6.6
 41
1.2
  7
CONVERTER_6
100
AcDbText
  0
ENDBLK
  5
6BA
100
AcDbEntity
  8
0
100
AcDbBlockEnd
  0
BLOCK
  5
6C0
100
AcDbEntity
  8
0
100
AcDbBlockBegin
  2
*D88
 70
           1
 10
0.0
 20
0.0
 30
0.0
  3
*D88
  1

  0
LINE
  5
6C1
100
AcDbEntity
  8
0
  6
CONTINUOUS
 62
           2
100
AcDbLine
 10
-136.591323939923
 20
-1334.912360034584
 11
-136.591323939923
 21
-1443.912360034584
  0
LINE
  5
6C2
100
AcDbEntity
  8
0
  6
CONTINUOUS
 62
           2
100
AcDbLine
 10
-118.796739454154
 20
-1443.912360034584
 11
-138.591323939923
 21
-1443.912360034584
  0
LINE
  5
6C3
100
AcDbEntity
  8
0
  6
CONTINUOUS
 62
           2
100
AcDbLine
 10
-108.392851893345
 20
-1334.912360034584
 11
-138.591323939923
 21
-1334.912360034584
  0
LINE
  5
6C4
100
AcDbEntity
  8
0
 62
           2
100
AcDbLine
 10
-136.591323939923
 20
-1334.912360034584
 11
-135.653501766414
 21
-1338.412360034584
  0
LINE
  5
6C5
100
AcDbEntity
  8
0
 62
           2
100
AcDbLine
 10
-136.591323939923
 20
-1334.912360034584
 11
-137.529146113432
 21
-1338.412360034584
  0
LINE
  5
6C6
100
AcDbEntity
  8
0
 62
           2
100
AcDbLine
 10
-136.591323939923
 20
-1443.912360034584
 11
-137.529146113432
 21
-1440.412360034584
  0
LINE
  5
6C7
100
AcDbEntity
  8
0
 62
           2
100
AcDbLine
 10
-136.591323939923
 20
-1443.912360034584
 11
-135.653501766414
 21
-1440.412360034584
  0
MTEXT
  5
6C8
100
AcDbEntity
  8
0
 62
           3
100
AcDbMText
 10
-138.591323939923
 20
-1392.814556495313
 30
0.0
 40
2.625
 41
0.0
 71
           7
 72
           1
  1
109
  7
CONVERTER_6
 11
0.0
 21
1.0
 31
0.0
  0
ENDBLK
  5
6C9
100
AcDbEntity
  8
0
100
AcDbBlockEnd
  0
BLOCK
  5
6CF
100
AcDbEntity
  8
0
100
AcDbBlockBegin
  2
*D91
 70
           1
 10
0.0
 20
0.0
 30
0.0
  3
*D91
  1

  0
LINE
  5
6D0
100
AcDbEntity
  8
0
  6
CONTINUOUS
 62
           2
100
AcDbLine
 10
-124.157423051385
 20
-1399.912360034584
 11
-124.157423051385
 21
-1334.912360034584
  0
LINE
  5
6D1
100
AcDbEntity
  8
0
  6
CONTINUOUS
 62
           2
100
AcDbLine
 10
-108.392851893346
 20
-1334.912360034584
 11
-126.157423051385
 21
-1334.912360034584
  0
LINE
  5
6D2
100
AcDbEntity
  8
0
  6
CONTINUOUS
 62
           2
100
AcDbLine
 10
-108.392851893346
 20
-1399.912360034584
 11
-126.157423051385
 21
-1399.912360034584
  0
LINE
  5
6D3
100
AcDbEntity
  8
0
 62
           2
100
AcDbLine
 10
-124.157423051385
 20
-1399.912360034584
 11
-125.095245224894
 21
-1396.412360034584
  0
LINE
  5
6D4
100
AcDbEntity
  8
0
 62
           2
100
AcDbLine
 10
-124.157423051385
 20
-1399.912360034584
 11
-123.219600877876
 21
-1396.412360034584
  0
LINE
  5
6D5
100
AcDbEntity
  8
0
 62
           2
100
AcDbLine
 10
-124.157423051385
 20
-1334.912360034584
 11
-123.219600877876
 21
-1338.412360034584
  0
LINE
  5
6D6
100
AcDbEntity
  8
0
 62
           2
100
AcDbLine
 10
-124.157423051385
 20
-1334.912360034584
 11
-125.095245224894
 21
-1338.412360034584
  0
MTEXT
  5
6D7
100
AcDbEntity
  8
0
 62
           3
100
AcDbMText
 10
-126.157423051385
 20
-1369.689556495313
 30
0.0
 40
2.625
 41
0.0
 71
           7
 72
           1
  1
65
  7
CONVERTER_6
 11
0.0
 21
1.0
 31
0.0
  0
ENDBLK
  5
6D8
100
AcDbEntity
  8
0
100
AcDbBlockEnd
  0
BLOCK
  5
6DE
100
AcDbEntity
  8
0
100
AcDbBlockBegin
  2
*D94
 70
           1
 10
0.0
 20
0.0
 30
0.0
  3
*D94
  1

  0
LINE
  5
6DF
100
AcDbEntity
  8
0
  6
CONTINUOUS
 62
           2
100
AcDbLine
 10
-75.886741718408
 20
-1461.99306644793
 11
-103.192851893345
 21
-1461.99306644793
  0
LINE
  5
6E0
100
AcDbEntity
  8
0
  6
CONTINUOUS
 62
           2
100
AcDbLine
 10
-103.192851893345
 20
-1461.99306644793
 11
-109.796739454154
 21
-1461.99306644793
  0
LINE
  5
6E1
100
AcDbEntity
  8
0
  6
CONTINUOUS
 62
           2
100
AcDbLine
 10
-109.796739454154
 20
-1461.99306644793
 11
-116.796739454154
 21
-1461.99306644793
  0
LINE
  5
6E2
100
AcDbEntity
  8
0
  6
CONTINUOUS
 62
           2
100
AcDbLine
 10
-109.796739454154
 20
-1452.912360034584
 11
-109.796739454154
 21
-1463.99306644793
  0
LINE
  5
6E3
100
AcDbEntity
  8
0
  6
CONTINUOUS
 62
           2
100
AcDbLine
 10
-103.192851893345
 20
-1407.507504139288
 11
-103.192851893345
 21
-1463.99306644793
  0
LINE
  5
6E4
100
AcDbEntity
  8
0
 62
           2
100
AcDbLine
 10
-103.192851893345
 20
-1461.99306644793
 11
-99.692851893345
 21
-1461.055244274421
  0
LINE
  5
6E5
100
AcDbEntity
  8
0
 62
           2
100
AcDbLine
 10
-103.192851893345
 20
-1461.99306644793
 11
-99.692851893345
 21
-1462.930888621439
  0
LINE
  5
6E6
100
AcDbEntity
  8
0
 62
           2
100
AcDbLine
 10
-109.796739454154
 20
-1461.99306644793
 11
-113.296739454154
 21
-1462.930888621439
  0
LINE
  5
6E7
100
AcDbEntity
  8
0
 62
           2
100
AcDbLine
 10
-109.796739454154
 20
-1461.99306644793
 11
-113.296739454154
 21
-1461.055244274421
  0
MTEXT
  5
6E8
100
AcDbEntity
  8
0
 62
           3
100
AcDbMText
 10
-97.933027561325
 20
-1459.99306644793
 30
0.0
 40
2.625
 41
0.0
 71
           7
 72
           1
  1
\C3;6.6\C3;(設定寸法)
  7
CONVERTER_7
  0
ENDBLK
  5
6E9
100
AcDbEntity
  8
0
100
AcDbBlockEnd
  0
BLOCK
  5
6EF
100
AcDbEntity
  8
0
100
AcDbBlockBegin
  2
*D97
 70
           1
 10
0.0
 20
0.0
 30
0.0
  3
*D97
  1

  0
LINE
  5
6F0
100
AcDbEntity
  8
0
  6
CONTINUOUS
 62
           2
100
AcDbLine
 10
-124.157423051385
 20
-1399.912360034584
 11
-124.157423051385
 21
-1443.912360034584
  0
LINE
  5
6F1
100
AcDbEntity
  8
0
  6
CONTINUOUS
 62
           2
100
AcDbLine
 10
-118.796739454154
 20
-1443.912360034584
 11
-126.157423051385
 21
-1443.912360034584
  0
LINE
  5
6F2
100
AcDbEntity
  8
0
  6
CONTINUOUS
 62
           2
100
AcDbLine
 10
-108.392851893345
 20
-1399.912360034584
 11
-126.157423051385
 21
-1399.912360034584
  0
LINE
  5
6F3
100
AcDbEntity
  8
0
 62
           2
100
AcDbLine
 10
-124.157423051385
 20
-1399.912360034584
 11
-123.219600877876
 21
-1403.412360034584
  0
LINE
  5
6F4
100
AcDbEntity
  8
0
 62
           2
100
AcDbLine
 10
-124.157423051385
 20
-1399.912360034584
 11
-125.095245224894
 21
-1403.412360034584
  0
LINE
  5
6F5
100
AcDbEntity
  8
0
 62
           2
100
AcDbLine
 10
-124.157423051385
 20
-1443.912360034584
 11
-125.095245224894
 21
-1440.412360034584
  0
LINE
  5
6F6
100
AcDbEntity
  8
0
 62
           2
100
AcDbLine
 10
-124.157423051385
 20
-1443.912360034584
 11
-123.219600877876
 21
-1440.412360034584
  0
MTEXT
  5
6F7
100
AcDbEntity
  8
0
 62
           3
100
AcDbMText
 10
-126.157423051385
 20
-1424.189556495313
 30
0.0
 40
2.625
 41
0.0
 71
           7
 72
           1
  1
44
  7
CONVERTER_6
 11
0.0
 21
1.0
 31
0.0
  0
ENDBLK
  5
6F8
100
AcDbEntity
  8
0
100
AcDbBlockEnd
  0
BLOCK
  5
6FE
100
AcDbEntity
  8
0
100
AcDbBlockBegin
  2
*D100
 70
           1
 10
0.0
 20
0.0
 30
0.0
  3
*D100
  1

  0
LINE
  5
6FF
100
AcDbEntity
  8
0
  6
CONTINUOUS
 62
           2
100
AcDbLine
 10
-279.127173006711
 20
-1323.912360034584
 11
-279.127173006711
 21
-1521.912360034584
  0
LINE
  5
700
100
AcDbEntity
  8
0
  6
CONTINUOUS
 62
           2
100
AcDbLine
 10
-261.420630199254
 20
-1521.912360034584
 11
-281.127173006711
 21
-1521.912360034584
  0
LINE
  5
701
100
AcDbEntity
  8
0
  6
CONTINUOUS
 62
           2
100
AcDbLine
 10
-262.220630199249
 20
-1323.912360034584
 11
-281.127173006711
 21
-1323.912360034584
  0
LINE
  5
702
100
AcDbEntity
  8
0
 62
           2
100
AcDbLine
 10
-279.127173006711
 20
-1323.912360034584
 11
-278.189350833202
 21
-1327.412360034584
  0
LINE
  5
703
100
AcDbEntity
  8
0
 62
           2
100
AcDbLine
 10
-279.127173006711
 20
-1323.912360034584
 11
-280.06499518022
 21
-1327.412360034584
  0
LINE
  5
704
100
AcDbEntity
  8
0
 62
           2
100
AcDbLine
 10
-279.127173006711
 20
-1521.912360034584
 11
-280.06499518022
 21
-1518.412360034584
  0
LINE
  5
705
100
AcDbEntity
  8
0
 62
           2
100
AcDbLine
 10
-279.127173006711
 20
-1521.912360034584
 11
-278.189350833202
 21
-1518.412360034584
  0
MTEXT
  5
706
100
AcDbEntity
  8
0
 62
           3
100
AcDbMText
 10
-281.127173006711
 20
-1426.377056495313
 30
0.0
 40
2.625
 41
0.0
 71
           7
 72
           1
  1
198
  7
CONVERTER_6
 11
0.0
 21
1.0
 31
0.0
  0
ENDBLK
  5
707
100
AcDbEntity
  8
0
100
AcDbBlockEnd
  0
BLOCK
  5
70D
100
AcDbEntity
  8
0
100
AcDbBlockBegin
  2
*D103
 70
           1
 10
0.0
 20
0.0
 30
0.0
  3
*D103
  1

  0
LINE
  5
70E
100
AcDbEntity
  8
0
  6
CONTINUOUS
 62
           2
100
AcDbLine
 10
-276.02063019925
 20
-1316.28015241858
 11
-269.02063019925
 21
-1316.28015241858
  0
LINE
  5
70F
100
AcDbEntity
  8
0
  6
CONTINUOUS
 62
           2
100
AcDbLine
 10
-269.02063019925
 20
-1316.28015241858
 11
-259.520630199249
 21
-1316.28015241858
  0
LINE
  5
710
100
AcDbEntity
  8
0
  6
CONTINUOUS
 62
           2
100
AcDbLine
 10
-259.520630199249
 20
-1316.28015241858
 11
-252.520630199249
 21
-1316.28015241858
  0
LINE
  5
711
100
AcDbEntity
  8
0
  6
CONTINUOUS
 62
           2
100
AcDbLine
 10
-259.520630199249
 20
-1323.212360034584
 11
-259.520630199249
 21
-1314.28015241858
  0
LINE
  5
712
100
AcDbEntity
  8
0
  6
CONTINUOUS
 62
           2
100
AcDbLine
 10
-269.02063019925
 20
-1324.212360034584
 11
-269.02063019925
 21
-1314.28015241858
  0
LINE
  5
713
100
AcDbEntity
  8
0
 62
           2
100
AcDbLine
 10
-269.02063019925
 20
-1316.28015241858
 11
-272.52063019925
 21
-1317.217974592089
  0
LINE
  5
714
100
AcDbEntity
  8
0
 62
           2
100
AcDbLine
 10
-269.02063019925
 20
-1316.28015241858
 11
-272.52063019925
 21
-1315.342330245071
  0
LINE
  5
715
100
AcDbEntity
  8
0
 62
           2
100
AcDbLine
 10
-259.520630199249
 20
-1316.28015241858
 11
-256.020630199249
 21
-1315.342330245071
  0
LINE
  5
716
100
AcDbEntity
  8
0
 62
           2
100
AcDbLine
 10
-259.520630199249
 20
-1316.28015241858
 11
-256.020630199249
 21
-1317.217974592089
  0
TEXT
  5
717
100
AcDbEntity
  8
0
 62
           3
100
AcDbText
 10
-267.235326659978
 20
-1314.28015241858
 40
2.625
  1
9.5
 41
1.2
  7
CONVERTER_6
100
AcDbText
  0
ENDBLK
  5
718
100
AcDbEntity
  8
0
100
AcDbBlockEnd
  0
BLOCK
  5
71E
100
AcDbEntity
  8
0
100
AcDbBlockBegin
  2
*D106
 70
           1
 10
0.0
 20
0.0
 30
0.0
  3
*D106
  1

  0
LINE
  5
71F
100
AcDbEntity
  8
0
  6
CONTINUOUS
 62
           2
100
AcDbLine
 10
-251.520630199249
 20
-1464.193731057525
 11
-264.520630199249
 21
-1464.193731057525
  0
LINE
  5
720
100
AcDbEntity
  8
0
  6
CONTINUOUS
 62
           2
100
AcDbLine
 10
-264.520630199249
 20
-1464.193731057525
 11
-272.487732855144
 21
-1464.193731057525
  0
LINE
  5
721
100
AcDbEntity
  8
0
  6
CONTINUOUS
 62
           2
100
AcDbLine
 10
-264.520630199249
 20
-1449.712360034584
 11
-264.520630199249
 21
-1466.193731057525
  0
LINE
  5
722
100
AcDbEntity
  8
0
  6
CONTINUOUS
 62
           2
100
AcDbLine
 10
-251.520630199249
 20
-1448.012360034584
 11
-251.520630199249
 21
-1466.193731057525
  0
LINE
  5
723
100
AcDbEntity
  8
0
 62
           2
100
AcDbLine
 10
-251.520630199249
 20
-1464.193731057525
 11
-255.020630199249
 21
-1465.131553231034
  0
LINE
  5
724
100
AcDbEntity
  8
0
 62
           2
100
AcDbLine
 10
-251.520630199249
 20
-1464.193731057525
 11
-255.020630199249
 21
-1463.255908884016
  0
LINE
  5
725
100
AcDbEntity
  8
0
 62
           2
100
AcDbLine
 10
-264.520630199249
 20
-1464.193731057525
 11
-261.020630199249
 21
-1463.255908884016
  0
LINE
  5
726
100
AcDbEntity
  8
0
 62
           2
100
AcDbLine
 10
-264.520630199249
 20
-1464.193731057525
 11
-261.020630199249
 21
-1465.131553231034
  0
TEXT
  5
727
100
AcDbEntity
  8
0
 62
           3
100
AcDbText
 10
-272.487732855144
 20
-1462.193731057525
 40
2.625
  1
L
 41
1.2
  7
CONVERTER_6
100
AcDbText
  0
ENDBLK
  5
728
100
AcDbEntity
  8
0
100
AcDbBlockEnd
  0
BLOCK
  5
72E
100
AcDbEntity
  8
0
100
AcDbBlockBegin
  2
*D109
 70
           1
 10
0.0
 20
0.0
 30
0.0
  3
*D109
  1

  0
LINE
  5
72F
100
AcDbEntity
  8
0
  6
CONTINUOUS
 62
           2
100
AcDbLine
 10
-223.861059490791
 20
-1368.412360034584
 11
-223.861059490791
 21
-1383.412360034584
  0
LINE
  5
730
100
AcDbEntity
  8
0
  6
CONTINUOUS
 62
           2
100
AcDbLine
 10
-222.595076619725
 20
-1383.412360034584
 11
-225.861059490791
 21
-1383.412360034584
  0
LINE
  5
731
100
AcDbEntity
  8
0
  6
CONTINUOUS
 62
           2
100
AcDbLine
 10
-208.185752172786
 20
-1368.412360034584
 11
-225.861059490791
 21
-1368.412360034584
  0
LINE
  5
732
100
AcDbEntity
  8
0
 62
           2
100
AcDbLine
 10
-223.861059490791
 20
-1368.412360034584
 11
-222.923237317282
 21
-1371.912360034584
  0
LINE
  5
733
100
AcDbEntity
  8
0
 62
           2
100
AcDbLine
 10
-223.861059490791
 20
-1368.412360034584
 11
-224.7988816643
 21
-1371.912360034584
  0
LINE
  5
734
100
AcDbEntity
  8
0
 62
           2
100
AcDbLine
 10
-223.861059490791
 20
-1383.412360034584
 11
-224.7988816643
 21
-1379.912360034584
  0
LINE
  5
735
100
AcDbEntity
  8
0
 62
           2
100
AcDbLine
 10
-223.861059490791
 20
-1383.412360034584
 11
-222.923237317282
 21
-1379.912360034584
  0
MTEXT
  5
736
100
AcDbEntity
  8
0
 62
           3
100
AcDbMText
 10
-225.861059490791
 20
-1378.189556495313
 30
0.0
 40
2.625
 41
0.0
 71
           7
 72
           1
  1
15
  7
CONVERTER_6
 11
0.0
 21
1.0
 31
0.0
  0
ENDBLK
  5
737
100
AcDbEntity
  8
0
100
AcDbBlockEnd
  0
BLOCK
  5
73D
100
AcDbEntity
  8
0
100
AcDbBlockBegin
  2
*D112
 70
           1
 10
0.0
 20
0.0
 30
0.0
  3
*D112
  1

  0
LINE
  5
73E
100
AcDbEntity
  8
0
  6
CONTINUOUS
 62
           2
100
AcDbLine
 10
44.279079806962
 20
-1357.163847016817
 11
51.279079806962
 21
-1357.163847016817
  0
LINE
  5
73F
100
AcDbEntity
  8
0
  6
CONTINUOUS
 62
           2
100
AcDbLine
 10
51.279079806962
 20
-1357.163847016817
 11
53.279049807027
 21
-1357.163847016817
  0
LINE
  5
740
100
AcDbEntity
  8
0
  6
CONTINUOUS
 62
           2
100
AcDbLine
 10
53.279049807027
 20
-1357.163847016817
 11
60.279049807027
 21
-1357.163847016817
  0
LINE
  5
741
100
AcDbEntity
  8
0
  6
CONTINUOUS
 62
           2
100
AcDbLine
 10
53.279049807027
 20
-1346.801008752529
 11
53.279049807027
 21
-1359.163847016817
  0
LINE
  5
742
100
AcDbEntity
  8
0
  6
CONTINUOUS
 62
           2
100
AcDbLine
 10
51.279079806962
 20
-1339.801006120958
 11
51.279079806962
 21
-1359.163847016817
  0
LINE
  5
743
100
AcDbEntity
  8
0
 62
           2
100
AcDbLine
 10
51.279079806962
 20
-1357.163847016817
 11
47.779079806962
 21
-1358.101669190326
  0
LINE
  5
744
100
AcDbEntity
  8
0
 62
           2
100
AcDbLine
 10
51.279079806962
 20
-1357.163847016817
 11
47.779079806962
 21
-1356.226024843308
  0
LINE
  5
745
100
AcDbEntity
  8
0
 62
           2
100
AcDbLine
 10
53.279049807027
 20
-1357.163847016817
 11
56.779049807027
 21
-1356.226024843308
  0
LINE
  5
746
100
AcDbEntity
  8
0
 62
           2
100
AcDbLine
 10
53.279049807027
 20
-1357.163847016817
 11
56.779049807027
 21
-1358.101669190326
  0
MTEXT
  5
747
100
AcDbEntity
  8
0
 62
           3
100
AcDbMText
 10
44.475664315815
 20
-1355.163847016817
 30
0.0
 40
2.625
 41
0.0
 71
           7
 72
           1
  1
\C3;(\C3;2\C3;)
  7
CONVERTER_6
  0
ENDBLK
  5
748
100
AcDbEntity
  8
0
100
AcDbBlockEnd
  0
BLOCK
  5
74E
100
AcDbEntity
  8
0
100
AcDbBlockBegin
  2
*D115
 70
           1
 10
0.0
 20
0.0
 30
0.0
  3
*D115
  1

  0
LINE
  5
74F
100
AcDbEntity
  8
0
  6
CONTINUOUS
 62
           2
100
AcDbLine
 10
63.98001820943
 20
-1330.301008752476
 11
63.98001820943
 21
-1323.301008752476
  0
LINE
  5
750
100
AcDbEntity
  8
0
  6
CONTINUOUS
 62
           2
100
AcDbLine
 10
63.98001820943
 20
-1323.301008752476
 11
63.98001820943
 21
-1316.701008752478
  0
LINE
  5
751
100
AcDbEntity
  8
0
  6
CONTINUOUS
 62
           2
100
AcDbLine
 10
63.98001820943
 20
-1316.701008752478
 11
63.98001820943
 21
-1309.701008752478
  0
LINE
  5
752
100
AcDbEntity
  8
0
  6
CONTINUOUS
 62
           2
100
AcDbLine
 10
35.373252011382
 20
-1316.701008752478
 11
65.98001820943
 21
-1316.701008752478
  0
LINE
  5
753
100
AcDbEntity
  8
0
  6
CONTINUOUS
 62
           2
100
AcDbLine
 10
53.389059985706
 20
-1323.301008752476
 11
65.98001820943
 21
-1323.301008752476
  0
LINE
  5
754
100
AcDbEntity
  8
0
 62
           2
100
AcDbLine
 10
63.98001820943
 20
-1323.301008752476
 11
64.917840382939
 21
-1326.801008752476
  0
LINE
  5
755
100
AcDbEntity
  8
0
 62
           2
100
AcDbLine
 10
63.98001820943
 20
-1323.301008752476
 11
63.042196035921
 21
-1326.801008752476
  0
LINE
  5
756
100
AcDbEntity
  8
0
 62
           2
100
AcDbLine
 10
63.98001820943
 20
-1316.701008752478
 11
63.042196035921
 21
-1313.201008752478
  0
LINE
  5
757
100
AcDbEntity
  8
0
 62
           2
100
AcDbLine
 10
63.98001820943
 20
-1316.701008752478
 11
64.917840382939
 21
-1313.201008752478
  0
MTEXT
  5
758
100
AcDbEntity
  8
0
 62
           3
100
AcDbMText
 10
61.98001820943
 20
-1323.154728250168
 30
0.0
 40
2.625
 41
0.0
 71
           7
 72
           1
  1
\C3;6.6\C3;(設定寸法)
  7
CONVERTER_7
 11
0.0
 21
1.0
 31
0.0
  0
ENDBLK
  5
759
100
AcDbEntity
  8
0
100
AcDbBlockEnd
  0
BLOCK
  5
75F
100
AcDbEntity
  8
0
100
AcDbBlockBegin
  2
*D118
 70
           1
 10
0.0
 20
0.0
 30
0.0
  3
*D118
  1

  0
LINE
  5
760
100
AcDbEntity
  8
0
  6
CONTINUOUS
 62
           2
100
AcDbLine
 10
-104.366734400042
 20
-1330.092446273155
 11
-110.190885039424
 21
-1318.582327381484
  0
LINE
  5
761
100
AcDbEntity
  8
0
  6
CONTINUOUS
 62
           2
100
AcDbLine
 10
-110.190885039424
 20
-1318.582327381484
 11
-137.43660881667
 21
-1318.582327381484
  0
LINE
  5
762
100
AcDbEntity
  8
0
 62
           2
100
AcDbLine
 10
-104.366734400042
 20
-1330.092446273155
 11
-106.78375568448
 21
-1327.392905841952
  0
LINE
  5
763
100
AcDbEntity
  8
0
 62
           2
100
AcDbLine
 10
-104.366734400042
 20
-1330.092446273155
 11
-105.110166018252
 21
-1326.546065038971
  0
MTEXT
  5
764
100
AcDbEntity
  8
0
 62
           3
100
AcDbMText
 10
-139.619715895212
 20
-1316.582327381484
 30
0.0
 40
2.625
 41
0.0
 71
           7
 72
           1
  1
\C3;2-{\Fgdt;n}\C3;5.2\C3;畜\Fgdt;~}孔
  7
CONVERTER_7
  0
ENDBLK
  5
765
100
AcDbEntity
  8
0
100
AcDbBlockEnd
  0
BLOCK
  5
768
100
AcDbEntity
  8
0
100
AcDbBlockBegin
  2
*D119
 70
           1
 10
0.0
 20
0.0
 30
0.0
  3
*D119
  1

  0
LINE
  5
769
100
AcDbEntity
  8
0
  6
CONTINUOUS
 62
           2
100
AcDbLine
 10
-107.908685510529
 20
-1442.273686087162
 11
-102.640810096774
 21
-1437.701607928098
  0
LINE
  5
76A
100
AcDbEntity
  8
0
  6
CONTINUOUS
 62
           2
100
AcDbLine
 10
-102.640810096774
 20
-1437.701607928098
 11
-90.782024253857
 21
-1437.701607928098
  0
LINE
  5
76B
100
AcDbEntity
  8
0
 62
           2
100
AcDbLine
 10
-107.908685510529
 20
-1442.273686087162
 11
-105.88012389467
 21
-1439.271279019526
  0
LINE
  5
76C
100
AcDbEntity
  8
0
 62
           2
100
AcDbLine
 10
-107.908685510529
 20
-1442.273686087162
 11
-104.650696084235
 21
-1440.687806102017
  0
MTEXT
  5
76D
100
AcDbEntity
  8
0
 62
           3
100
AcDbMText
 10
-95.238917175315
 20
-1435.701607928098
 30
0.0
 40
2.625
 41
0.0
 71
           7
 72
           1
  1
\C3;M\C3;5\C3;
  7
CONVERTER_6
  0
ENDBLK
  5
76E
100
AcDbEntity
  8
0
100
AcDbBlockEnd
  0
BLOCK
  5
771
100
AcDbEntity
  8
0
100
AcDbBlockBegin
  2
*D120
 70
           1
 10
0.0
 20
0.0
 30
0.0
  3
*D120
  1

  0
LINE
  5
772
100
AcDbEntity
  8
0
  6
CONTINUOUS
 62
           2
100
AcDbLine
 10
-102.318232266176
 20
-1333.113738198908
 11
-99.914222201159
 21
-1328.169983380463
  0
LINE
  5
773
100
AcDbEntity
  8
0
  6
CONTINUOUS
 62
           2
100
AcDbLine
 10
-99.914222201159
 20
-1328.169983380463
 11
-83.555436358242
 21
-1328.169983380463
  0
LINE
  5
774
100
AcDbEntity
  8
0
 62
           2
100
AcDbLine
 10
-102.318232266176
 20
-1333.113738198908
 11
-101.631041638257
 21
-1329.556031146602
  0
LINE
  5
775
100
AcDbEntity
  8
0
 62
           2
100
AcDbLine
 10
-102.318232266176
 20
-1333.113738198908
 11
-99.944254199003
 21
-1330.376268826348
  0
MTEXT
  5
776
100
AcDbEntity
  8
0
 62
           3
100
AcDbMText
 10
-92.3173292797
 20
-1326.169983380463
 30
0.0
 40
2.625
 41
0.0
 71
           7
 72
           1
  1
\C3;2-M\C3;4
  7
CONVERTER_6
  0
ENDBLK
  5
777
100
AcDbEntity
  8
0
100
AcDbBlockEnd
  0
BLOCK
  5
77A
100
AcDbEntity
  8
0
100
AcDbBlockBegin
  2
*D121
 70
           1
 10
0.0
 20
0.0
 30
0.0
  3
*D121
  1

  0
LINE
  5
77B
100
AcDbEntity
  8
0
  6
CONTINUOUS
 62
           2
100
AcDbLine
 10
-42.657989501509
 20
-1426.564307029948
 11
-42.657989501509
 21
-1428.564307029948
  0
LINE
  5
77C
100
AcDbEntity
  8
0
  6
CONTINUOUS
 62
           2
100
AcDbLine
 10
21.973509628834
 20
-1391.545390371126
 11
23.648943668994
 21
-1392.637599498112
  0
LINE
  5
77D
100
AcDbEntity
  8
0
  6
CONTINUOUS
 62
           2
100
AcDbLine
 10
-42.657989501509
 20
-1418.081078191595
 11
-42.657989501509
 21
-1426.564307029948
  0
LINE
  5
77E
100
AcDbEntity
  8
0
  6
CONTINUOUS
 62
           2
100
AcDbLine
 10
14.866964445709
 20
-1386.912660389345
 11
21.973509628834
 21
-1391.545390371126
  0
ARC
  5
77F
100
AcDbEntity
  8
0
  6
CONTINUOUS
 62
           2
100
AcDbCircle
 10
-42.657989501509
 20
-1349.412360034584
 40
77.151946995365
100
AcDbArc
 50
-90.0
 51
-33.10017799673
  0
LINE
  5
780
100
AcDbEntity
  8
0
 62
           2
100
AcDbLine
 10
-42.657989501509
 20
-1426.564307029948
 11
-39.180160170677
 21
-1425.547344112861
  0
LINE
  5
781
100
AcDbEntity
  8
0
 62
           2
100
AcDbLine
 10
-42.657989501509
 20
-1426.564307029948
 11
-39.137619492438
 21
-1427.42250597446
  0
LINE
  5
782
100
AcDbEntity
  8
0
 62
           2
100
AcDbLine
 10
21.973509628834
 20
-1391.545390371126
 11
20.769947364129
 21
-1394.963130604687
  0
LINE
  5
783
100
AcDbEntity
  8
0
 62
           2
100
AcDbLine
 10
21.973509628834
 20
-1391.545390371126
 11
19.222324015782
 21
-1393.903459104573
  0
MTEXT
  5
784
100
AcDbEntity
  8
0
 62
           3
100
AcDbMText
 10
-11.405000500434
 20
-1417.953080515001
 30
0.0
 40
2.625
 41
0.0
 71
           7
 72
           1
  1
\C3;(\C3;57{\Fgdt;~}\C3;)
  7
CONVERTER_6
 11
0.879233917536
 21
0.476390300335
 31
0.0
  0
ENDBLK
  5
785
100
AcDbEntity
  8
0
100
AcDbBlockEnd
  0
ENDSEC
  0
SECTION
  2
ENTITIES
  0
DIMENSION
  5
789
100
AcDbEntity
  8
0
100
AcDbDimension
  2
*D121
 10
-42.657989501509
 20
-1349.412360034584
 11
-7.690013927189
 21
-1413.949841446117
 31
0.0
 70
           2
  1
<>
  3
ME10_DIM_21
100
AcDb2LineAngularDimension
 13
-42.657989501509
 23
-1417.381078191595
 14
-42.657989501509
 24
-1317.381078191595
 15
14.280562531653
 25
-1386.5303871949
 16
-7.690013927189
 26
-1413.949841446117
  0
DIMENSION
  5
75D
100
AcDbEntity
  8
0
100
AcDbDimension
  2
*D115
 10
63.98001820943
 20
-1323.301008752476
 11
60.23001820943
 21
-1312.13158532871
 31
0.0
 53
90.0
  1
<>
  3
ME10_DIM_20
100
AcDbAlignedDimension
 13
34.673252011382
 23
-1316.701008752479
 14
52.689059985706
 24
-1323.301008752476
 50
90.0
100
AcDbRotatedDimension
  0
DIMENSION
  5
74C
100
AcDbEntity
  8
0
100
AcDbDimension
  2
*D112
 10
51.279079806962
 20
-1357.163847016817
 11
47.842860776544
 21
-1353.413847016817
 31
0.0
  1
<>
  3
ME10_DIM_19
100
AcDbAlignedDimension
 13
53.279049807027
 23
-1346.101008752529
 14
51.279079806962
 24
-1339.101006120958
100
AcDbRotatedDimension
  0
DIMENSION
  5
73B
100
AcDbEntity
  8
0
100
AcDbDimension
  2
*D109
 10
-223.861059490791
 20
-1368.412360034584
 11
-227.611059490791
 21
-1375.912360034584
 31
0.0
 53
90.0
  1
<>
  3
ME10_DIM_18
100
AcDbAlignedDimension
 13
-221.895076619725
 23
-1383.412360034584
 14
-207.485752172786
 24
-1368.412360034584
 50
90.0
100
AcDbRotatedDimension
  0
DIMENSION
  5
72C
100
AcDbEntity
  8
0
100
AcDbDimension
  2
*D106
 10
-251.520630199249
 20
-1464.193731057525
 11
-271.335536394415
 21
-1460.443731057525
 31
0.0
  1
<>
  3
ME10_DIM_17
100
AcDbAlignedDimension
 13
-264.520630199249
 23
-1449.012360034584
 14
-251.520630199249
 24
-1447.312360034584
100
AcDbRotatedDimension
  0
DIMENSION
  5
71C
100
AcDbEntity
  8
0
100
AcDbDimension
  2
*D103
 10
-269.02063019925
 20
-1316.28015241858
 11
-264.270630199249
 21
-1312.53015241858
 31
0.0
  1
<>
  3
ME10_DIM_16
100
AcDbAlignedDimension
 13
-259.520630199249
 23
-1323.912360034584
 14
-269.02063019925
 24
-1324.912360034584
100
AcDbRotatedDimension
  0
DIMENSION
  5
70B
100
AcDbEntity
  8
0
100
AcDbDimension
  2
*D100
 10
-279.127173006711
 20
-1323.912360034584
 11
-282.877173006711
 21
-1422.912360034584
 31
0.0
 53
90.0
  1
<>
  3
ME10_DIM_15
100
AcDbAlignedDimension
 13
-260.720630199254
 23
-1521.912360034584
 14
-261.520630199249
 24
-1323.912360034584
 50
90.0
100
AcDbRotatedDimension
  0
DIMENSION
  5
6FC
100
AcDbEntity
  8
0
100
AcDbDimension
  2
*D97
 10
-124.157423051385
 20
-1399.912360034584
 11
-127.907423051385
 21
-1421.912360034584
 31
0.0
 53
90.0
  1
<>
  3
ME10_DIM_14
100
AcDbAlignedDimension
 13
-118.096739454154
 23
-1443.912360034584
 14
-107.692851893345
 24
-1399.912360034584
 50
90.0
100
AcDbRotatedDimension
  0
DIMENSION
  5
6ED
100
AcDbEntity
  8
0
100
AcDbDimension
  2
*D94
 10
-103.192851893345
 20
-1461.99306644793
 11
-86.909884639866
 21
-1458.24306644793
 31
0.0
  1
<>
  3
ME10_DIM_13
100
AcDbAlignedDimension
 13
-109.796739454154
 23
-1452.212360034584
 14
-103.192851893345
 24
-1406.807504139288
100
AcDbRotatedDimension
  0
DIMENSION
  5
6DC
100
AcDbEntity
  8
0
100
AcDbDimension
  2
*D91
 10
-124.157423051385
 20
-1399.912360034584
 11
-127.907423051385
 21
-1367.412360034584
 31
0.0
 53
90.0
  1
<>
  3
ME10_DIM_12
100
AcDbAlignedDimension
 13
-107.692851893345
 23
-1334.912360034584
 14
-107.692851893345
 24
-1399.912360034584
 50
90.0
100
AcDbRotatedDimension
  0
DIMENSION
  5
6CD
100
AcDbEntity
  8
0
100
AcDbDimension
  2
*D88
 10
-136.591323939923
 20
-1334.912360034584
 11
-140.341323939923
 21
-1389.412360034584
 31
0.0
 53
90.0
  1
<>
  3
ME10_DIM_11
100
AcDbAlignedDimension
 13
-118.096739454154
 23
-1443.912360034584
 14
-107.692851893345
 24
-1334.912360034584
 50
90.0
100
AcDbRotatedDimension
  0
DIMENSION
  5
6BE
100
AcDbEntity
  8
0
100
AcDbDimension
  2
*D85
 10
-48.557989501509
 20
-1430.31696717461
 11
-73.775968837439
 21
-1426.56696717461
 31
0.0
  1
<>
  3
ME10_DIM_10
100
AcDbAlignedDimension
 13
-55.157989501509
 23
-1434.912360034584
 14
-48.557989501509
 24
-1408.912360034584
100
AcDbRotatedDimension
  0
DIMENSION
  5
6AD
100
AcDbEntity
  8
0
100
AcDbDimension
  2
*D82
 10
-55.157989501509
 20
-1469.65540919552
 11
8.923662731503
 21
-1465.90540919552
 31
0.0
  1
<>
  3
ME10_DIM_9
100
AcDbAlignedDimension
 13
73.005314964514
 23
-1449.912360034584
 14
-55.157989501509
 24
-1451.912360034584
100
AcDbRotatedDimension
  0
DIMENSION
  5
69E
100
AcDbEntity
  8
0
100
AcDbDimension
  2
*D79
 10
32.27904980703
 20
-1363.614737195518
 11
16.063684528934
 21
-1359.864737195518
 31
0.0
  1
<>
  3
ME10_DIM_8
100
AcDbAlignedDimension
 13
26.27904980703
 23
-1337.451008752531
 14
32.27904980703
 24
-1328.401008752477
100
AcDbRotatedDimension
  0
DIMENSION
  5
68D
100
AcDbEntity
  8
0
100
AcDbDimension
  2
*D76
 10
-4.877174834539
 20
-1335.701008752531
 11
-8.627174834539
 21
-1317.701008752531
 31
0.0
 53
90.0
  1
<>
  3
ME10_DIM_7
100
AcDbAlignedDimension
 13
26.27904980703
 23
-1299.701008752531
 14
26.27904980703
 24
-1335.701008752531
 50
90.0
100
AcDbRotatedDimension
  0
DIMENSION
  5
67E
100
AcDbEntity
  8
0
100
AcDbDimension
  2
*D73
 10
26.279049807029
 20
-1284.300483841204
 11
31.029049807031
 21
-1280.550483841204
 31
0.0
  1
<>
  3
ME10_DIM_6
100
AcDbAlignedDimension
 13
35.779049807031
 23
-1299.701008752531
 14
26.27904980703
 24
-1299.701008753349
100
AcDbRotatedDimension
  0
DIMENSION
  5
66D
100
AcDbEntity
  8
0
100
AcDbDimension
  2
*D70
 10
-4.877174834539
 20
-1299.70100875253
 11
26.33346808692
 21
-1271.19985554033
 31
0.0
  1
<>
  3
ME10_DIM_5
100
AcDbAlignedDimension
 13
31.779319907471
 23
-1294.700898752531
 14
26.27904980703
 24
-1299.701008752531
 50
90.0
100
AcDbRotatedDimension
  0
DIMENSION
  5
65C
100
AcDbEntity
  8
0
100
AcDbDimension
  2
*D67
 10
-31.557989508607
 20
-1290.37380840778
 11
-55.032989505058
 21
-1286.62380840778
 31
0.0
  1
<>
  3
ME10_DIM_4
100
AcDbAlignedDimension
 13
-78.507989501509
 23
-1368.412360034583
 14
-31.557989508607
 24
-1310.912360034439
100
AcDbRotatedDimension
  0
DIMENSION
  5
64D
100
AcDbEntity
  8
0
100
AcDbDimension
  2
*D64
 10
-31.557989508607
 20
-1299.48698444909
 11
-49.307989507463
 21
-1295.73698444909
 31
0.0
  1
<>
  3
ME10_DIM_3
100
AcDbAlignedDimension
 13
-67.05798950632
 23
-1310.912360034683
 14
-31.557989508607
 24
-1310.912360034439
100
AcDbRotatedDimension
  0
DIMENSION
  5
63E
100
AcDbEntity
  8
0
100
AcDbDimension
  2
*D61
 10
-67.05798950632
 20
-1299.48698444909
 11
-72.782989503915
 21
-1295.73698444909
 31
0.0
  1
<>
  3
ME10_DIM_2
100
AcDbAlignedDimension
 13
-78.507989501509
 23
-1368.412360034583
 14
-67.05798950632
 24
-1310.912360034683
100
AcDbRotatedDimension
  0
DIMENSION
  5
62F
100
AcDbEntity
  8
0
100
AcDbDimension
  2
*D58
 10
-205.220630199248
 20
-1298.97305935817
 11
-183.72063019925
 21
-1295.22305935817
 31
0.0
  1
<>
  3
ME10_DIM_1
100
AcDbAlignedDimension
 13
-162.220630199253
 23
-1368.412360034583
 14
-205.220630199247
 24
-1324.912360034584
100
AcDbRotatedDimension
  0
DIMENSION
  5
620
100
AcDbEntity
  8
0
100
AcDbDimension
  2
*D55
 10
26.27904980703
 20
-1374.833425161017
 11
47.779049807028
 21
-1371.083425161017
 31
0.0
  1
<>
  3
ME10_DIM_0
100
AcDbAlignedDimension
 13
69.279049807026
 23
-1341.601008752528
 14
26.27904980703
 24
-1337.451008752531
100
AcDbRotatedDimension
  0
MTEXT
  5
610
100
AcDbEntity
  8
1
 62
           3
100
AcDbMText
 10
-197.28858280444
 20
-1513.985128665297
 30
0.0
 40
3.5
 41
0.0
 71
           5
 72
           1
  1
標準ストッパー
  7
CONVERTER_3
  0
MTEXT
  5
60F
100
AcDbEntity
  8
1
 62
           3
100
AcDbMText
 10
-221.180950759348
 20
-1513.985128665297
 30
0.0
 40
3.5
 41
0.0
 71
           5
 72
           1
  1
強力ストッパー
  7
CONVERTER_3
  0
MTEXT
  5
60E
100
AcDbEntity
  8
1
 62
           3
100
AcDbMText
 10
-213.920630199253
 20
-1538.109623407273
 30
0.0
 40
3.5
 41
0.0
 71
           5
 72
           1
  1
セーフティ・ストッパー
  7
CONVERTER_5
  0
MTEXT
  5
60D
100
AcDbEntity
  8
1
 62
           3
100
AcDbMText
 10
-165.920630199253
 20
-1538.109623407273
 30
0.0
 40
3.5
 41
0.0
 71
           5
 72
           1
  1
開き窓用
  7
CONVERTER_5
  0
MTEXT
  5
60C
100
AcDbEntity
  8
1
 62
           3
100
AcDbMText
 10
-117.920630199253
 20
-1538.109623407273
 30
0.0
 40
3.5
 41
0.0
 71
           5
 72
           1
  1
内観右吊元用
  7
CONVERTER_5
  0
MTEXT
  5
60B
100
AcDbEntity
  8
1
 62
           3
100
AcDbMText
 10
-69.920630199253
 20
-1538.109623407273
 30
0.0
 40
3.5
 41
0.0
 71
           5
 72
           1
  1
脱着式操作ボタン
  7
CONVERTER_5
  0
MTEXT
  5
60A
100
AcDbEntity
  8
1
 62
           3
100
AcDbMText
 10
-21.920630199253
 20
-1538.109623407273
 30
0.0
 40
3.5
 41
0.0
 71
           5
 72
           1
  1
標準開口量
  7
CONVERTER_5
  0
MTEXT
  5
608
100
AcDbEntity
  8
1
 62
           3
100
AcDbMText
 10
26.079369800747
 20
-1538.109623407273
 30
0.0
 40
3.5
 41
0.0
 71
           5
 72
           1
  1
Ver.2.0
  7
CONVERTER_4
  0
MTEXT
  5
607
100
AcDbEntity
  8
1
 62
           3
100
AcDbMText
 10
74.079369800747
 20
-1538.109623407273
 30
0.0
 40
3.5
 41
0.0
 71
           5
 72
           1
  1
2008.10.16
  7
CONVERTER_4
  0
MTEXT
  5
605
100
AcDbEntity
  8
1
 62
           3
100
AcDbMText
 10
-235.192613359015
 20
-1411.683972594513
 30
0.0
 40
4.0
 41
0.0
 71
           5
 72
           1
  1
ストッパーピン
  7
CONVERTER_3
  0
MTEXT
  5
604
100
AcDbEntity
  8
1
 62
           3
100
AcDbMText
 10
-248.539601467615
 20
-1421.074523473498
 30
0.0
 40
3.5
 41
0.0
 71
           4
 72
           1
  1
標準品3種類\P(L=13、L=10、L=7)
  7
CONVERTER_3
  0
MTEXT
  5
603
100
AcDbEntity
  8
1
 62
           3
100
AcDbMText
 10
-135.811455946711
 20
-1457.683972594513
 30
0.0
 40
4.0
 41
0.0
 71
           5
 72
           1
  1
ストッパーピン
  7
CONVERTER_3
  0
MTEXT
  5
602
100
AcDbEntity
  8
1
 62
           3
100
AcDbMText
 10
-111.410765745785
 20
-1475.055981601286
 30
0.0
 40
4.0
 41
0.0
 71
           5
 72
           1
  1
取付位置関係図
  7
CONVERTER_3
  0
MTEXT
  5
601
100
AcDbEntity
  8
1
 62
           3
100
AcDbMText
 10
-125.442610205806
 20
-1321.912887528303
 30
0.0
 40
4.0
 41
0.0
 71
           5
 72
           1
  1
(本体取付用孔)
  7
CONVERTER_3
  0
MTEXT
  5
600
100
AcDbEntity
  8
1
 62
           3
100
AcDbMText
 10
-246.822598375742
 20
-1301.895877276525
 30
0.0
 40
3.5
 41
0.0
 71
           5
 72
           1
  1
(オプション、緩み止め加工品)
  7
CONVERTER_3
  0
MTEXT
  5
5FF
100
AcDbEntity
  8
1
 62
           3
100
AcDbMText
 10
-251.038902761166
 20
-1295.665901947894
 30
0.0
 40
4.0
 41
0.0
 71
           5
 72
           1
  1
2-M4 トラスネジ
  7
CONVERTER_3
  0
MTEXT
  5
5FE
100
AcDbEntity
  8
1
 62
           3
100
AcDbMText
 10
-247.992692824094
 20
-1502.84182058177
 30
0.0
 40
4.0
 41
0.0
 71
           5
 72
           1
  1
全開位置
  7
CONVERTER_3
  0
MTEXT
  5
5FD
100
AcDbEntity
  8
1
 62
           3
100
AcDbMText
 10
-177.604096053551
 20
-1502.84182058177
 30
0.0
 40
4.0
 41
0.0
 71
           5
 72
           1
  1
換気位置
  7
CONVERTER_3
  0
MTEXT
  5
5FC
100
AcDbEntity
  8
1
 62
           3
100
AcDbMText
 10
-235.463788043646
 20
-1383.412360034584
 30
0.0
 40
3.5
 41
0.0
 71
           5
 72
           1
  1
全開
  7
CONVERTER_3
  0
MTEXT
  5
5FB
100
AcDbEntity
  8
1
 62
           3
100
AcDbMText
 10
-235.463788043646
 20
-1368.412360034584
 30
0.0
 40
3.5
 41
0.0
 71
           5
 72
           1
  1
半開
  7
CONVERTER_3
  0
MTEXT
  5
5FA
100
AcDbEntity
  8
1
 62
           3
100
AcDbMText
 10
-14.194734323158
 20
-1455.717290020734
 30
0.0
 40
4.0
 41
0.0
 71
           5
 72
           1
  1
ストッパーピン位置
  7
CONVERTER_3
  0
LEADER
  5
5F8
100
AcDbEntity
  8
1
  6
CONTINUOUS
 62
           2
100
AcDbLeader
  3
Standard
 71
           0
 73
           3
 74
           0
 75
           0
 40
0.0
 76
           3
 10
-255.784753174991
 20
-1447.312360034584
 30
0.0
 10
-246.839117301071
 20
-1414.641231160465
 30
0.0
 10
-224.169418106823
 20
-1414.641231160465
 30
0.0
 77
           2
  0
LEADER
  5
5F5
100
AcDbEntity
  8
1
  6
CONTINUOUS
 62
           2
100
AcDbLeader
  3
Standard
 71
           0
 73
           3
 74
           0
 75
           0
 40
0.0
 76
           2
 10
-113.199354055075
 20
-1448.233495750759
 30
0.0
 10
-124.688544053288
 20
-1460.184222594514
 30
0.0
 77
           2
  0
LEADER
  5
5F2
100
AcDbEntity
  8
1
  6
CONTINUOUS
 62
           2
100
AcDbLeader
  3
Standard
 71
           0
 73
           3
 74
           0
 75
           0
 40
0.0
 76
           2
 10
-209.220630199247
 20
-1332.912360034583
 30
0.0
 10
-226.461097238834
 20
-1299.165901947894
 30
0.0
 77
           2
  0
LEADER
  5
5EF
100
AcDbEntity
  8
1
  6
CONTINUOUS
 62
           2
100
AcDbLeader
  3
Standard
 71
           0
 73
           3
 74
           0
 75
           0
 40
0.0
 76
           2
 10
-55.157989501509
 20
-1443.912360034584
 30
0.0
 10
-27.805265676841
 20
-1458.717290020734
 30
0.0
 77
           2
  0
CIRCLE
  5
5CE
100
AcDbEntity
  8
1
  6
CENTER_DASH_DASH
 62
           2
100
AcDbCircle
 10
-109.796739454154
 20
-1443.912360034584
 40
3.5
  0
CIRCLE
  5
5CD
100
AcDbEntity
  8
1
  6
CENTER_DASH_DASH
 62
           2
100
AcDbCircle
 10
-109.796739454154
 20
-1443.912360034584
 40
5.5
  0
CIRCLE
  5
5CC
100
AcDbEntity
  8
1
  6
CONTINUOUS
 62
           2
100
AcDbCircle
 10
-103.192851893345
 20
-1334.912360034584
 40
2.0
  0
CIRCLE
  5
5CB
100
AcDbEntity
  8
1
  6
CONTINUOUS
 62
           7
100
AcDbCircle
 10
-103.192851893345
 20
-1334.912360034584
 40
1.6
  0
CIRCLE
  5
5CA
100
AcDbEntity
  8
1
  6
CONTINUOUS
 62
           2
100
AcDbCircle
 10
-103.192851893345
 20
-1399.912360034584
 40
2.0
  0
CIRCLE
  5
5C9
100
AcDbEntity
  8
1
  6
CONTINUOUS
 62
           7
100
AcDbCircle
 10
-103.192851893345
 20
-1399.912360034584
 40
1.6
  0
CIRCLE
  5
5C8
100
AcDbEntity
  8
1
  6
CONTINUOUS
 62
           2
100
AcDbCircle
 10
-109.796739454154
 20
-1443.912360034584
 40
2.5
  0
CIRCLE
  5
5C7
100
AcDbEntity
  8
1
  6
CONTINUOUS
 62
           7
100
AcDbCircle
 10
-109.796739454154
 20
-1443.912360034584
 40
2.0
  0
CIRCLE
  5
5C6
100
AcDbEntity
  8
1
  6
CONTINUOUS
 62
           4
100
AcDbCircle
 10
-103.192851893345
 20
-1332.412360034584
 40
2.6
  0
ARC
  5
5C5
100
AcDbEntity
  8
1
  6
CENTER_DASH_DASH
 62
           2
100
AcDbCircle
 10
-103.192851893345
 20
-1332.412360034584
 40
2.6
100
AcDbArc
 50
0.0
 51
180.0
  0
ARC
  5
5C4
100
AcDbEntity
  8
1
  6
CENTER_DASH_DASH
 62
           2
100
AcDbCircle
 10
-103.192851893345
 20
-1337.412360034584
 40
2.600000000001
100
AcDbArc
 50
180.0
 51
0.0
  0
ARC
  5
5C3
100
AcDbEntity
  8
1
  6
CENTER_DASH_DASH
 62
           2
100
AcDbCircle
 10
-103.192851893345
 20
-1397.412360034584
 40
2.6
100
AcDbArc
 50
0.0
 51
180.0
  0
ARC
  5
5C2
100
AcDbEntity
  8
1
  6
CENTER_DASH_DASH
 62
           2
100
AcDbCircle
 10
-103.192851893345
 20
-1402.412360034584
 40
2.600000000001
100
AcDbArc
 50
180.0
 51
0.0
  0
LINE
  5
5C1
100
AcDbEntity
  8
1
  6
DASH_CENTER
 62
           1
100
AcDbLine
 10
-109.796739454154
 20
-1452.212360034584
 11
-109.796739454154
 21
-1435.612360034585
  0
LINE
  5
5C0
100
AcDbEntity
  8
1
  6
DASH_CENTER
 62
           1
100
AcDbLine
 10
-118.096739454154
 20
-1443.912360034584
 11
-101.496739454154
 21
-1443.912360034584
  0
LINE
  5
5BF
100
AcDbEntity
  8
1
  6
CENTER_DASH_DASH
 62
           2
100
AcDbLine
 10
-100.592851893345
 20
-1332.412360034584
 11
-100.592851893345
 21
-1337.412360034584
  0
LINE
  5
5BE
100
AcDbEntity
  8
1
  6
CENTER_DASH_DASH
 62
           2
100
AcDbLine
 10
-105.792851893346
 20
-1337.412360034584
 11
-105.792851893346
 21
-1332.412360034584
  0
LINE
  5
5BD
100
AcDbEntity
  8
1
  6
DASH_CENTER
 62
           4
100
AcDbLine
 10
-107.152174620285
 20
-1332.412360034584
 11
-99.213190529875
 21
-1332.412360034584
  0
LINE
  5
5BC
100
AcDbEntity
  8
1
  6
DASH_CENTER
 62
           1
100
AcDbLine
 10
-107.692851893345
 20
-1334.912360034584
 11
-98.692851893345
 21
-1334.912360034584
  0
LINE
  5
5BB
100
AcDbEntity
  8
1
  6
DASH_CENTER
 62
           4
100
AcDbLine
 10
-107.152174620285
 20
-1337.412360034584
 11
-99.213190529875
 21
-1337.412360034584
  0
LINE
  5
5BA
100
AcDbEntity
  8
1
  6
DASH_CENTER
 62
           4
100
AcDbLine
 10
-107.152174620285
 20
-1402.412360034584
 11
-99.213190529875
 21
-1402.412360034584
  0
LINE
  5
5B9
100
AcDbEntity
  8
1
  6
DASH_CENTER
 62
           4
100
AcDbLine
 10
-107.152174620285
 20
-1397.412360034584
 11
-99.213190529875
 21
-1397.412360034584
  0
LINE
  5
5B8
100
AcDbEntity
  8
1
  6
CENTER_DASH_DASH
 62
           2
100
AcDbLine
 10
-100.592851893345
 20
-1397.412360034584
 11
-100.592851893345
 21
-1402.412360034584
  0
LINE
  5
5B7
100
AcDbEntity
  8
1
  6
CENTER_DASH_DASH
 62
           2
100
AcDbLine
 10
-105.792851893346
 20
-1402.412360034584
 11
-105.792851893346
 21
-1397.412360034584
  0
LINE
  5
5B6
100
AcDbEntity
  8
1
  6
DASH_CENTER
 62
           1
100
AcDbLine
 10
-107.692851893345
 20
-1399.912360034584
 11
-98.692851893345
 21
-1399.912360034584
  0
LINE
  5
5B5
100
AcDbEntity
  8
1
  6
DASH_CENTER
 62
           1
100
AcDbLine
 10
-103.192851893345
 20
-1406.807504139288
 11
-103.192851893345
 21
-1393.06256987524
  0
LINE
  5
5B4
100
AcDbEntity
  8
1
  6
DASH_CENTER
 62
           1
100
AcDbLine
 10
-103.192851893345
 20
-1342.289086762249
 11
-103.192851893345
 21
-1327.936158673771
  0
LINE
  5
5B3
100
AcDbEntity
  8
1
  6
DASH_CENTER
 62
           1
100
AcDbLine
 10
-103.192851893345
 20
-1331.712360034584
 11
-103.192851893345
 21
-1338.112360034584
  0
LINE
  5
5B2
100
AcDbEntity
  8
1
  6
DASH_CENTER
 62
           1
100
AcDbLine
 10
-106.392851893345
 20
-1334.912360034584
 11
-99.992851893345
 21
-1334.912360034584
  0
LINE
  5
5B1
100
AcDbEntity
  8
1
  6
DASH_CENTER
 62
           1
100
AcDbLine
 10
-103.192851893345
 20
-1396.712360034584
 11
-103.192851893345
 21
-1403.112360034584
  0
LINE
  5
5B0
100
AcDbEntity
  8
1
  6
DASH_CENTER
 62
           1
100
AcDbLine
 10
-106.392851893345
 20
-1399.912360034584
 11
-99.992851893345
 21
-1399.912360034584
  0
LINE
  5
5AF
100
AcDbEntity
  8
1
  6
CONTINUOUS
 62
           2
100
AcDbLine
 10
-146.688544053288
 20
-1460.183972594513
 11
-124.688544053288
 21
-1460.183972594513
  0
LINE
  5
5AE
100
AcDbEntity
  8
1
  6
CONTINUOUS
 62
           2
100
AcDbLine
 10
-266.461097238834
 20
-1299.165901947894
 11
-226.461097238834
 21
-1299.165901947894
  0
LINE
  5
5AD
100
AcDbEntity
  8
1
  6
CONTINUOUS
 62
           2
100
AcDbLine
 10
-239.889251087649
 20
-1383.412360034584
 11
-252.421497038798
 21
-1383.412360034585
  0
LINE
  5
5AC
100
AcDbEntity
  8
1
  6
CONTINUOUS
 62
           4
100
AcDbLine
 10
-228.895076619725
 20
-1383.412360034585
 11
-221.895076619725
 21
-1383.412360034584
  0
LINE
  5
5AB
100
AcDbEntity
  8
1
  6
CONTINUOUS
 62
           2
100
AcDbLine
 10
1.194734323158
 20
-1458.717290020733
 11
-27.805265676841
 21
-1458.717290020734
  0
INSERT
  5
B3
100
AcDbEntity
  8
0
100
AcDbBlockReference
  2
_S____1
 10
0.0
 20
0.0
  0
INSERT
  5
B4
100
AcDbEntity
  8
0
100
AcDbBlockReference
  2
_S____2
 10
0.0
 20
0.0
  0
INSERT
  5
B5
100
AcDbEntity
  8
0
100
AcDbBlockReference
  2
_X_G_B_P____3
 10
0.0
 20
0.0
  0
INSERT
  5
B6
100
AcDbEntity
  8
0
100
AcDbBlockReference
  2
_X_G_B_P____4
 10
0.0
 20
0.0
  0
INSERT
  5
B7
100
AcDbEntity
  8
0
100
AcDbBlockReference
  2
_X___X__7
 10
0.0
 20
0.0
  0
INSERT
  5
B8
100
AcDbEntity
  8
0
100
AcDbBlockReference
  2
A__9
 10
0.0
 20
0.0
  0
INSERT
  5
B9
100
AcDbEntity
  8
0
100
AcDbBlockReference
  2
_X___X__12
 10
0.0
 20
0.0
  0
INSERT
  5
BA
100
AcDbEntity
  8
0
100
AcDbBlockReference
  2
X_A______13
 10
0.0
 20
0.0
  0
INSERT
  5
BB
100
AcDbEntity
  8
0
100
AcDbBlockReference
  2
X_A______14
 10
0.0
 20
0.0
  0
INSERT
  5
BC
100
AcDbEntity
  8
0
100
AcDbBlockReference
  2
X_A______16
 10
0.0
 20
0.0
  0
INSERT
  5
BD
100
AcDbEntity
  8
0
100
AcDbBlockReference
  2
A__17
 10
0.0
 20
0.0
  0
INSERT
  5
BE
100
AcDbEntity
  8
0
100
AcDbBlockReference
  2
STD_01_MI__19
 10
0.0
 20
0.0
  0
INSERT
  5
BF
100
AcDbEntity
  8
0
100
AcDbBlockReference
  2
STD_01_MI__21
 10
0.0
 20
0.0
  0
INSERT
  5
C0
100
AcDbEntity
  8
0
100
AcDbBlockReference
  2
M05__M_D8_MI
 10
0.0
 20
0.0
  0
INSERT
  5
C1
100
AcDbEntity
  8
0
100
AcDbBlockReference
  2
______22
 10
0.0
 20
0.0
  0
INSERT
  5
C2
100
AcDbEntity
  8
0
100
AcDbBlockReference
  2
____1__27
 10
0.0
 20
0.0
  0
INSERT
  5
C3
100
AcDbEntity
  8
0
100
AcDbBlockReference
  2
______28
 10
0.0
 20
0.0
  0
INSERT
  5
C4
100
AcDbEntity
  8
0
100
AcDbBlockReference
  2
_G_E
 10
0.0
 20
0.0
  0
INSERT
  5
C5
100
AcDbEntity
  8
0
100
AcDbBlockReference
  2
___Q_E
 10
0.0
 20
0.0
  0
INSERT
  5
C6
100
AcDbEntity
  8
0
100
AcDbBlockReference
  2
_G_E_P_B_L__
 10
0.0
 20
0.0
  0
INSERT
  5
C7
100
AcDbEntity
  8
0
100
AcDbBlockReference
  2
____1__32
 10
0.0
 20
0.0
  0
INSERT
  5
C8
100
AcDbEntity
  8
0
100
AcDbBlockReference
  2
______
 10
0.0
 20
0.0
  0
INSERT
  5
C9
100
AcDbEntity
  8
0
100
AcDbBlockReference
  2
SKB_A3_MI
 10
0.0
 20
0.0
  0
INSERT
  5
CA
100
AcDbEntity
  8
0
100
AcDbBlockReference
  2
X_A______33
 10
0.0
 20
0.0
  0
INSERT
  5
CB
100
AcDbEntity
  8
0
100
AcDbBlockReference
  2
____
 10
0.0
 20
0.0
  0
POLYLINE
  5
5CF
100
AcDbEntity
  8
0
 62
           3
100
AcDb2dPolyline
 66
           1
 10
0.0
 20
0.0
 30
0.0
 70
           1
  0
VERTEX
  5
5D0
100
AcDbEntity
  8
0
100
AcDbVertex
100
AcDb2dVertex
 10
-239.865984504375
 20
-1364.912360034584
  0
VERTEX
  5
5D1
100
AcDbEntity
  8
0
100
AcDbVertex
100
AcDb2dVertex
 10
-239.865984504375
 20
-1371.912360034584
  0
VERTEX
  5
5D2
100
AcDbEntity
  8
0
100
AcDbVertex
100
AcDb2dVertex
 10
-231.061591582917
 20
-1371.912360034584
  0
VERTEX
  5
5D3
100
AcDbEntity
  8
0
100
AcDbVertex
100
AcDb2dVertex
 10
-231.061591582917
 20
-1364.912360034584
  0
SEQEND
  5
5D4
100
AcDbEntity
  8
0
  0
POLYLINE
  5
5D5
100
AcDbEntity
  8
0
 62
           3
100
AcDb2dPolyline
 66
           1
 10
0.0
 20
0.0
 30
0.0
 70
           1
  0
VERTEX
  5
5D6
100
AcDbEntity
  8
0
100
AcDbVertex
100
AcDb2dVertex
 10
-239.865984504375
 20
-1379.912360034584
  0
VERTEX
  5
5D7
100
AcDbEntity
  8
0
100
AcDbVertex
100
AcDb2dVertex
 10
-239.865984504375
 20
-1386.912360034584
  0
VERTEX
  5
5D8
100
AcDbEntity
  8
0
100
AcDbVertex
100
AcDb2dVertex
 10
-231.061591582917
 20
-1386.912360034584
  0
VERTEX
  5
5D9
100
AcDbEntity
  8
0
100
AcDbVertex
100
AcDb2dVertex
 10
-231.061591582917
 20
-1379.912360034584
  0
SEQEND
  5
5DA
100
AcDbEntity
  8
0
  0
POLYLINE
  5
5DB
100
AcDbEntity
  8
0
 62
           3
100
AcDb2dPolyline
 66
           1
 10
0.0
 20
0.0
 30
0.0
 70
           1
  0
VERTEX
  5
5DC
100
AcDbEntity
  8
0
100
AcDbVertex
100
AcDb2dVertex
 10
-185.635177722956
 20
-1498.84182058177
  0
VERTEX
  5
5DD
100
AcDbEntity
  8
0
100
AcDbVertex
100
AcDb2dVertex
 10
-185.635177722956
 20
-1506.84182058177
  0
VERTEX
  5
5DE
100
AcDbEntity
  8
0
100
AcDbVertex
100
AcDb2dVertex
 10
-169.573014384146
 20
-1506.84182058177
  0
VERTEX
  5
5DF
100
AcDbEntity
  8
0
100
AcDbVertex
100
AcDb2dVertex
 10
-169.573014384146
 20
-1498.84182058177
  0
SEQEND
  5
5E0
100
AcDbEntity
  8
0
  0
POLYLINE
  5
5E1
100
AcDbEntity
  8
0
 62
           3
100
AcDb2dPolyline
 66
           1
 10
0.0
 20
0.0
 30
0.0
 70
           1
  0
VERTEX
  5
5E2
100
AcDbEntity
  8
0
100
AcDbVertex
100
AcDb2dVertex
 10
-256.023774493499
 20
-1498.84182058177
  0
VERTEX
  5
5E3
100
AcDbEntity
  8
0
100
AcDbVertex
100
AcDb2dVertex
 10
-256.023774493499
 20
-1506.84182058177
  0
VERTEX
  5
5E4
100
AcDbEntity
  8
0
100
AcDbVertex
100
AcDb2dVertex
 10
-239.961611154689
 20
-1506.84182058177
  0
VERTEX
  5
5E5
100
AcDbEntity
  8
0
100
AcDbVertex
100
AcDb2dVertex
 10
-239.961611154689
 20
-1498.84182058177
  0
SEQEND
  5
5E6
100
AcDbEntity
  8
0
  0
POLYLINE
  5
5E7
100
AcDbEntity
  8
0
 62
           3
100
AcDb2dPolyline
 66
           1
 10
0.0
 20
0.0
 30
0.0
 70
           1
  0
VERTEX
  5
5E8
100
AcDbEntity
  8
0
100
AcDbVertex
100
AcDb2dVertex
 10
-123.900180748523
 20
-1471.055981601286
  0
VERTEX
  5
5E9
100
AcDbEntity
  8
0
100
AcDbVertex
100
AcDb2dVertex
 10
-123.900180748523
 20
-1479.055981601286
  0
VERTEX
  5
5EA
100
AcDbEntity
  8
0
100
AcDbVertex
100
AcDb2dVertex
 10
-98.921350743047
 20
-1479.055981601286
  0
VERTEX
  5
5EB
100
AcDbEntity
  8
0
100
AcDbVertex
100
AcDb2dVertex
 10
-98.921350743047
 20
-1471.055981601286
  0
SEQEND
  5
5EC
100
AcDbEntity
  8
0
  0
LINE
  5
5ED
100
AcDbEntity
  8
0
 62
           2
100
AcDbLine
 10
-55.157989501509
 20
-1443.912360034584
 11
-52.137027530531
 21
-1444.633442344329
  0
LINE
  5
5EE
100
AcDbEntity
  8
0
 62
           2
100
AcDbLine
 10
-55.157989501509
 20
-1443.912360034584
 11
-52.902300845648
 21
-1446.047316618532
  0
LINE
  5
5F0
100
AcDbEntity
  8
0
 62
           2
100
AcDbLine
 10
-209.220630199247
 20
-1332.912360034583
 11
-211.301318755305
 21
-1330.6065183097
  0
LINE
  5
5F1
100
AcDbEntity
  8
0
 62
           2
100
AcDbLine
 10
-209.220630199247
 20
-1332.912360034583
 11
-209.869638483715
 21
-1329.875098245699
  0
LINE
  5
5F3
100
AcDbEntity
  8
0
 62
           2
100
AcDbLine
 10
-113.199354055075
 20
-1448.233495750759
 11
-114.699016367641
 21
-1450.953272189327
  0
LINE
  5
5F4
100
AcDbEntity
  8
0
 62
           2
100
AcDbLine
 10
-113.199354055075
 20
-1448.233495750759
 11
-115.857987934139
 21
-1449.839060082891
  0
LINE
  5
5F6
100
AcDbEntity
  8
0
 62
           2
100
AcDbLine
 10
-255.784753174991
 20
-1447.312360034584
 11
-255.764973327804
 21
-1443.68894739085
  0
LINE
  5
5F7
100
AcDbEntity
  8
0
 62
           2
100
AcDbLine
 10
-255.784753174991
 20
-1447.312360034584
 11
-253.955917002977
 21
-1444.18428256031
  0
INSERT
  5
766
100
AcDbEntity
  8
0
100
AcDbBlockReference
  2
*D118
 10
0.0
 20
0.0
  0
INSERT
  5
76F
100
AcDbEntity
  8
0
100
AcDbBlockReference
  2
*D119
 10
0.0
 20
0.0
  0
INSERT
  5
778
100
AcDbEntity
  8
0
100
AcDbBlockReference
  2
*D120
 10
0.0
 20
0.0
  0
ENDSEC
  0
SECTION
  2
OBJECTS
  0
DICTIONARY
  5
19
100
AcDbDictionary
  3
ACAD_GROUP
350
1A
  3
ACAD_MLINESTYLE
350
1B
  0
DICTIONARY
  5
1A
102
{ACAD_REACTORS
330
19
102
}
100
AcDbDictionary
  0
DICTIONARY
  5
1B
102
{ACAD_REACTORS
330
19
102
}
100
AcDbDictionary
  3
STANDARD
350
1C
  0
MLINESTYLE
  5
1C
102
{ACAD_REACTORS
330
1B
102
}
100
AcDbMlineStyle
  2
STANDARD
 70
           0
  3

 62
           0
 51
90.0
 52
90.0
 71
           2
 49
0.5
 62
         256
  6
BYLAYER
 49
-0.5
 62
         256
  6
BYLAYER
  0
ENDSEC
  0
EOF
